Мастер эпоса / Kaaviya Thalaivan (Васантабалан / Vasanthabalan) [2014, Индия, драма, история, музыкальный, WEB-DLRip] (Oxy) + Sub Rus

Ответить на тему
 
Автор Сообщение

user ®

Стаж: 12 лет

Сообщений: 15092

Пост Пост: #1 от 16-Авг-2015 20:33

[Цитировать]

Мастер эпоса / Kaaviya Thalaivan Страна: Индия (Колливуд)
Жанр: драма, история, музыкальный
Год выпуска: 2014
Продолжительность: 02:28:26
Перевод: Субтитры - Oxy
Cубтитры: русские
Оригинальная аудиодорожка: тамильский
Режиссер: Васантабалан / Vasanthabalan
Музыка: А. Р. Рахман
В ролях: [url=http://***/forum/viewtopic.php?t=4776492]Сиддхарт[/url], [url=http://***/forum/viewtopic.php?t=4473269]Притвирадж[/url], Нассер, Ведика, Анаика Соти и др.
Описание: Исторический фильм повествует о жизни театральных актеров. Действия происходят в 20-30-е годы прошлого века - период расцвета тамильской драмы. Основа сюжета - взаимоотношения между двумя одинаково привлекательными и талантливыми актёрами, которые выросли в одной театральной труппе под руководством почитаемого ими учителя. У них абсолютно разные характеры, разное отношение как к актерской игре, так и к жизни в целом. И между ними есть соперничество и в искусстве, и в любви, и в жизни. Действия картины развиваются на фоне национально-освободительного движения Индии. Образы персонажей собирательные и имеют черты реальных легендарных личностей, таких как: пионер и отец тамильского театра Шанкарадас Свамигал; певец и актер тамильского театра С. Г. Китаппа; актриса, певица, "Королева индийской сцены", жена Китаппы К. Б. Сундарамбал и не только их. Т. е. фильм не биографический. Эта кинокартина полностью перенесет вас в ту эпоху, заставит прочувствовать всех персонажей, сопереживать им, и оставит в голове много тем для размышлений. Всем приятного просмотра! (Oxy)
Васантабалан: "Мой фильм не о жизни Сундарамбал и Киттаппы, он только вдохновлён их жизнью. Я написал свою историю, на основе того, что прочитал об этих легендарных актёрах." Идея фильма появилась после прочтения автобиографии театрального деятеля Т. К. Шанмугхама.
А. Р. Рахман: "Я хотел возродить забытую эру тамильского кино... Мне нужно было погрузиться в атмосферу музыки тех времён. Актёры исполняли песни на сцене, а для музыки, исполняемой со сцены нужны особые мелодии и динамизм."
Сиддхарт: "У меня есть маленький список целей для воплощения в этой жизни, который я имею относительно фильма. После его просмотра, даже если всего один молодой человек захочет быть частью театра, это будет большим успехом."

Доп. информация: Оператор - Нирав Шах.
Трейлеры Клипы на саундтрек О фильме на IMDB (На данный момент рейтинг - 7.7)
Сэмпл
Качество видео: WEB-DLRip (исходник - TamilRockers/1080p/4GB)
Формат видео: AVI
Видео: Xvid, 720x308, 24fps, 1 318 Kbps
Аудио: MP3, 44100Hz, stereo, 128kbps
Формат субтитров: hardsub (неотключаемые)
[url=http://***/forum/viewtopic.php?t=4807500]Kaaviya Thalaivan (Soundtrack)[/url]
MediaInfo
General
Complete name : F:\Torrent\Siddu-rt\MasterEposa.2014.WEB-DLRip.Xvid.rus.sub.avi
Format : AVI
Format/Info : Audio Video Interleave
File size : 1.37 GiB
Duration : 2h 28mn
Overall bit rate : 1 318 Kbps
Writing application : VirtualDubMod 1.5.10.2 (build 2542/release)
Writing library : VirtualDubMod build 2542/release
Video
ID : 0
Format : MPEG-4 Visual
Format profile : Advanced Simple@L5
Format settings, BVOP : Yes
Format settings, QPel : No
Format settings, GMC : No warppoints
Format settings, Matrix : Default (H.263)
Codec ID : XVID
Codec ID/Hint : XviD
Duration : 2h 28mn
Bit rate : 1 181 Kbps
Width : 720 pixels
Height : 308 pixels
Display aspect ratio : 2.35:1
Frame rate : 24.000 fps
Color space : YUV
Chroma subsampling : 4:2:0
Bit depth : 8 bits
Scan type : Progressive
Compression mode : Lossy
Bits/(Pixel*Frame) : 0.222
Stream size : 1.22 GiB (90%)
Writing library : XviD 64
Audio
ID : 1
Format : MPEG Audio
Format version : Version 1
Format profile : Layer 3
Mode : Joint stereo
Mode extension : MS Stereo
Codec ID : 55
Codec ID/Hint : MP3
Duration : 2h 28mn
Bit rate mode : Constant
Bit rate : 128 Kbps
Channel(s) : 2 channels
Sampling rate : 44.1 KHz
Compression mode : Lossy
Stream size : 136 MiB (10%)
Alignment : Split accross interleaves
Interleave, duration : 42 ms (1.00 video frame)
Interleave, preload duration : 500 ms
Writing library : LAME3.98.4
Скриншот c названием фильма Скриншоты
Скачать

Скачать торрент! Мастер эпоса / Kaaviya Thalaivan (Васантабалан / Vasanthabalan) [2014, Индия, драма, история, музыкальный, WEB-DLRip] (Oxy) + Sub Rus

Как скачивать? · Что такое торрент? · Рейтинг и ограничения

Сайт не распространяет и не хранит электронные версии произведений, а лишь предоставляет доступ к создаваемому пользователями каталогу ссылок на торрент-файлы, которые содержат только списки хеш-сумм

[Профиль] [ЛС]
Показать сообщения:    
Ответить на тему

Текущее время: Сегодня 12:27

Часовой пояс: GMT + 4



Вы не можете начинать темы
Вы не можете отвечать на сообщения
Вы не можете редактировать свои сообщения
Вы не можете удалять свои сообщения
Вы не можете голосовать в опросах
Вы не можете прикреплять файлы к сообщениям
Вы не можете скачивать файлы