Вилли/Милли / Нечто особенное / Willy/Milly / Something Special / I Was a Teenage Boy (Пол Шнейдер / Paul Schneider) [1986, США, комедия, фэнтези, HDTV 1080i] DVO (NTV+) + Original Eng

Ответить на тему
 
Автор Сообщение

user ®

Стаж: 7 лет 7 месяцев

Сообщений: 20008

Пост Пост: #1 от 16-Авг-2015 17:27

[Цитировать]

Вилли/Милли / Willy/Milly- Страна: США
Студия: Griffon Productions, Imageworks / CRC Production
Жанр: комедия, фэнтези
Год выпуска: 1986
Продолжительность: 01:23:20-Перевод: Профессиональный (двухголосый закадровый) НТВ+
Cубтитры: нет
Оригинальная аудиодорожка: английский-Режиссер: Пол Шнейдер / Paul Schneider
В ролях: Памела Адлон (Сиголл), Эрик Гарри, Мэри Тэннер, Джон Гловер, Пэтти Дьюк, Сет Грин, ДжейДи Каллам, Кори Паркер, Джеб Эллис-Браун, Тэрин Граймс...- | Релиз: -Описание: Есть мальчики, мечтающие трансформироваться в девочек. Есть девочки, жалеющие, что они — не мальчики. Милли была одной из таких девочек. Лежала однажды на крыше дома, смотрела в небо и ждала солнечного затмения. Загадала желание и ждала. Милли верила, что оно обязательно сбудется. Но наверняка она не знала, к каким последствиям ее приведет неприязнь к своему девчоночьему естеству. Во время затмения ничего не произошло. Но утром Милли, когда проснулась, ощутила «нечто особенное!», оттянула резинку пижамных брюк и увидела… Да-да! Именно ЭТО она и увидела у себя между ног. За одну ночь девочка Милли превратилась в мальчика Уилли. В половом смысле, но не в абсолютном. И потому жизнь для «нее/него» еще более усложнилась.-Семпл: http://sendfile.su/1146045-Тип релиза: HDTV 1080i
Контейнер: TS
Видео: 1920x1080i (16:9), 25.000 fps, AVC, ~6954 kbps, 0.134 bits/pixel
Аудио 1: Русский, 48.0 KHz, MPEG-1 Audio layer 2, 2 ch, 192 kbps
Аудио 2: English, 48.0 KHz, MPEG-1 Audio layer 2, 2 ch, 192 kbps
MediaInfo
GeneralID : 1 (0x1)Complete name : WillyMilly 1986 MGMHD 1080i.rus.eng.tsFormat : MPEG-TSFile size : 4.50 GiBDuration : 1h 23mnOverall bit rate mode : VariableOverall bit rate : 7 723 KbpsMaximum Overall bit rate : 35.5 Mbps
VideoID : 4113 (0x1011)Menu ID : 1 (0x1)Format : AVCFormat/Info : Advanced Video CodecFormat profile : Main@L4Format settings, CABAC : YesFormat settings, ReFrames : 4 framesCodec ID : 27Duration : 1h 23mnBit rate : 6 954 KbpsWidth : 1 920 pixelsHeight : 1 080 pixelsDisplay aspect ratio : 16:9Frame rate : 25.000 fpsStandard : ComponentColor space : YUVChroma subsampling : 4:2:0Bit depth : 8 bitsScan type : InterlacedScan order : Top Field FirstBits/(Pixel*Frame) : 0.134Stream size : 4.05 GiB (90%)Color range : LimitedColor primaries : BT.709Transfer characteristics : BT.709Matrix coefficients : BT.709
Audio #1ID : 4352 (0x1100)Menu ID : 1 (0x1)Format : MPEG AudioFormat version : Version 1Format profile : Layer 2Codec ID : 4Duration : 1h 23mnBit rate mode : ConstantBit rate : 192 KbpsChannel(s) : 2 channelsSampling rate : 48.0 KHzCompression mode : LossyStream size : 114 MiB (2%)Language : Russian
Audio #2ID : 4353 (0x1101)Menu ID : 1 (0x1)Format : MPEG AudioFormat version : Version 1Format profile : Layer 2Codec ID : 4Duration : 1h 23mnBit rate mode : ConstantBit rate : 192 KbpsChannel(s) : 2 channelsSampling rate : 48.0 KHzCompression mode : LossyStream size : 114 MiB (2%)Language : English
Скриншоты
Скачать

Скачать торрент!

Как скачивать? · Что такое торрент? · Рейтинг и ограничения

Сайт не распространяет и не хранит электронные версии произведений, а лишь предоставляет доступ к создаваемому пользователями каталогу ссылок на торрент-файлы, которые содержат только списки хеш-сумм

[Профиль] [ЛС]
Показать сообщения:    
Ответить на тему

Текущее время: Сегодня 12:33

Часовой пояс: GMT + 4



Вы не можете начинать темы
Вы не можете отвечать на сообщения
Вы не можете редактировать свои сообщения
Вы не можете удалять свои сообщения
Вы не можете голосовать в опросах
Вы не можете прикреплять файлы к сообщениям
Вы не можете скачивать файлы