Поэтичная Джастис / Poetic Justice (Джон Синглтон / John Singleton) [1993, США, мелодрама, драма, WEB-DL 720p] Dub + Original Eng + Sub (Eng)

Ответить на тему
 
Автор Сообщение

user ®

Стаж: 7 лет 7 месяцев

Сообщений: 20008

Пост Пост: #1 от 16-Авг-2015 17:27

[Цитировать]

Поэтичная Джастис / Poetic Justice- Страна: США
Жанр: Мелодрама, драма
Год выпуска: 1993
Продолжительность: 01:49:07
Перевод: Профессиональный (дублированный) c VHS
Cубтитры: английские
Оригинальная аудиодорожка: английский-Режиссер: Джон Синглтон / John Singleton
В ролях: Джанет Джексон, Тупак Шакур, Реджина Кинг, Джо Торри, Тайра Феррелл, Роджер Гуэнвёр Смит, Билли Зейн, Ханди Александр, Майя Энджелоу, Лори Петти-Описание: Её парня убили на её глазах в машине, когда они смотрели кино на открытом воздухе. Джастис пишет стихи и от мира отгородилась чёрной стеной скорби. Работает она в парикмахерской, и все подруги говорят ей, что она должна забыть и жить дальше.
Поддавшись на уговоры одной из них, она отправляется с ней и двумя другим черными парнями-почтальонами в Окленд. С одним из них после долгих ссор и ругани у нее завязывается любовь — оба находят в этом лекарство от горького прошлого.- -Доп. информация: Спасибо [url=http://***/forum/profile.php?mode=viewprofile&u=1572075]No54ERATU[/url] за дорожку с дубляжем.
За английские субтитры спасибо cedr-Тип релиза: WEB-DL 720p
Контейнер: MKV
Видео: AVC, 1280x720, 3989 kbps, 23.976 fps, 0.181 bpf
Аудио 1: AC3, 192 kbps, 2.0 channels, 48000 Hz - DUB (VHS)
Аудио 2: AC3, 192 kbps, 2.0 channels, 48000 Hz - ENG
Формат субтитров: softsub (SRT) - английские-Скриншоты Резервные скриншоты
-
MediaInfo
Format : Matroska
Format version : Version 4 / Version 2
File size : 3.40 GiB
Duration : 1h 49mn
Overall bit rate : 4 462 Kbps
Movie name : Поэтичная Джастис / Poetic Justice (1993) WEB-DL 720p [RG Torrents.ru]
Encoded date : UTC 2015-08-15 11:03:08
Writing application : mkvmerge v7.8.0 ('River Man') 32bit built on Mar 27 2015 16:18:02
Writing library : libebml v1.3.1 + libmatroska v1.4.2
Attachment : Yes
Video
ID : 1
Format : AVC
Format/Info : Advanced Video Codec
Format profile : High@L3.1
Format settings, CABAC : No
Format settings, ReFrames : 2 frames
Codec ID : V_MPEG4/ISO/AVC
Duration : 1h 49mn
Bit rate : 3 989 Kbps
Width : 1 280 pixels
Height : 720 pixels
Display aspect ratio : 16:9
Frame rate mode : Constant
Frame rate : 23.976 fps
Color space : YUV
Chroma subsampling : 4:2:0
Bit depth : 8 bits
Scan type : Progressive
Bits/(Pixel*Frame) : 0.181
Stream size : 3.04 GiB (89%)
Language : English
Default : Yes
Forced : No
Color primaries : BT.709
Transfer characteristics : BT.709
Matrix coefficients : BT.709
Audio #1
ID : 2
Format : AC-3
Format/Info : Audio Coding 3
Mode extension : CM (complete main)
Format settings, Endianness : Big
Codec ID : A_AC3
Duration : 1h 49mn
Bit rate mode : Constant
Bit rate : 192 Kbps
Channel(s) : 2 channels
Channel positions : Front: L R
Sampling rate : 48.0 KHz
Bit depth : 16 bits
Compression mode : Lossy
Stream size : 150 MiB (4%)
Title : DUB (VHS)
Language : Russian
Default : Yes
Forced : No
Audio #2
ID : 3
Format : AC-3
Format/Info : Audio Coding 3
Mode extension : CM (complete main)
Format settings, Endianness : Big
Codec ID : A_AC3
Duration : 1h 49mn
Bit rate mode : Constant
Bit rate : 192 Kbps
Channel(s) : 2 channels
Channel positions : Front: L R
Sampling rate : 48.0 KHz
Bit depth : 16 bits
Compression mode : Lossy
Stream size : 150 MiB (4%)
Language : English
Default : No
Forced : No
Text
ID : 4
Format : UTF-8
Codec ID : S_TEXT/UTF8
Codec ID/Info : UTF-8 Plain Text
Language : English
Default : No
Forced : No
Menu
00:00:00.000 : en:Start
00:02:19.000 : en:The Drive In
00:09:20.000 : en:At Jessie's
00:13:24.000 : en:Lucky
00:21:18.000 : en:Keisha & Her Mom
00:31:41.000 : en:Home Alone
00:34:50.000 : en:Lucky & His Mom
00:39:53.000 : en:The Oakland Run
00:41:48.000 : en:Getting Acquainted
00:43:30.000 : en:Justice Hits The Road
00:50:26.000 : en:Drinkin' And Drivin'
00:53:45.000 : en:Johnson Family Reunion
00:54:50.000 : en:Cousin Pete
00:57:04.000 : en:Calendar Sisters
00:58:04.000 : en:Ice Begins To Thaw
01:01:47.000 : en:Making A Scene
01:02:58.000 : en:On The Road Again
01:04:00.000 : en:Honest Words
01:05:49.000 : en:Creative Talk
01:09:11.000 : en:The Cultural Faire
01:12:32.000 : en:Sixty-Second Man
01:14:13.000 : en:Chicago Breakdown
01:26:02.000 : en:Lucky's Coursing
01:30:57.000 : en:Fight Strategy
01:33:51.000 : en:The Next Morning
01:36:26.000 : en:At The Show
01:39:47.000 : en:Back At Jessie's
01:41:53.000 : en:Apology Accepted
-Перезалито 15.08.2015 в 15:00
Добавлены английские субтитры.
Скачать

Скачать торрент!

Как скачивать? · Что такое торрент? · Рейтинг и ограничения

Сайт не распространяет и не хранит электронные версии произведений, а лишь предоставляет доступ к создаваемому пользователями каталогу ссылок на торрент-файлы, которые содержат только списки хеш-сумм

[Профиль] [ЛС]
Показать сообщения:    
Ответить на тему

Текущее время: Сегодня 15:51

Часовой пояс: GMT + 4



Вы не можете начинать темы
Вы не можете отвечать на сообщения
Вы не можете редактировать свои сообщения
Вы не можете удалять свои сообщения
Вы не можете голосовать в опросах
Вы не можете прикреплять файлы к сообщениям
Вы не можете скачивать файлы