Кинороман / Cinemanovels (Терри Майлз / Terry Miles) [2013, Канада, драма, WEB-DL 720p] MVO (UMS Film) + VO (Antonio) + Sub Rus + Original Eng

Ответить на тему
 
Автор Сообщение

user ®

Стаж: 7 лет 7 месяцев

Сообщений: 20008

Пост Пост: #1 от 15-Авг-2015 04:21

[Цитировать]

Кинороман / Cinemanovels
Страна: Канада
Жанр: драма
Год выпуска: 2013
Продолжительность: 01:26:57
Перевод 1: Профессиональный (многоголосый закадровый) UMS Film
Перевод 2: Одноголосый закадровый Antonio
Cубтитры: русские Antonio
Оригинальная аудиодорожка: английский
Режиссер: Терри Майлз / Terry Miles
В ролях: Лорен Ли Смит, Дженнифер Билз, Бен Коттон, Сара Грэй, Кэтрин Изабель, Кетт Тортон, Вив Ликок, Габриель Роз, Джерри Вассерман, Эрика Кэрролл
Описание: Грейс в последние годы практически не общалась со своим отцом, легендарным канадским кинорежиссером Джоном Лорентианом. Поэтому она очень удивилась, когда ей предложили принять участие в подготовке ретроспективного показа его работ. Тем не менее, она соглашается, хоть и не смотрела ни одного из его фильмов. Случайно оказывается, что её сосед Адам является настоящим поклонником творчества её отца и предлагает ей свою помощь. Но чем больше Грейс узнаёт о работах отца, тем большее влияние они начинают оказывать на её судьбу.
Сэмпл: http://multi-up.com/1062545
Тип релиза: WEB-DL 720p
Контейнер: MKV
Видео: MPEG4 Video (H264) 1280x542 23.976fps 4000Kbps
Аудио 1: Dolby AC3 48000Hz 6ch 448kbps [русский, UMS Film]
Аудио 2: Dolby AC3 48000Hz stereo 192kbps [русский, Antonio]
Аудио 3: AAC 48000Hz stereo 128 Kbps [английский]
Формат субтитров: softsub (SRT)
MediaInfo
General
Unique ID : 194874794965435074133223457862353350949 (0x929B8532943E421A9C97E873D80AF125)
Complete name : D:\TORRENTS\Cinemanovels.2013.WEB-DL.720p.MVO.VO.SUB.mkv
Format : Matroska
Format version : Version 4 / Version 2
File size : 3.04 GiB
Duration : 1h 30mn
Overall bit rate : 4 795 Kbps
Movie name : Cinemanovels. 2013
Encoded date : UTC 2015-08-14 11:07:49
Writing application : mkvmerge v8.2.0 ('World of Adventure') 32bit
Writing library : libebml v1.3.1 + libmatroska v1.4.2
DURATION : 01:30:38.442000000
NUMBER_OF_FRAMES : 254927
NUMBER_OF_BYTES : 105737562
_STATISTICS_WRITING_APP : mkvmerge v8.2.0 ('World of Adventure') 32bit
_STATISTICS_WRITING_DATE_UTC : 2015-08-14 11:07:49
_STATISTICS_TAGS : BPS DURATION NUMBER_OF_FRAMES NUMBER_OF_BYTES
Video
ID : 1
Format : AVC
Format/Info : Advanced Video Codec
Format profile : Main@L3.1
Format settings, CABAC : No
Format settings, ReFrames : 2 frames
Codec ID : V_MPEG4/ISO/AVC
Duration : 1h 30mn
Width : 1 280 pixels
Height : 542 pixels
Display aspect ratio : 2.35:1
Frame rate mode : Constant
Frame rate : 23.976 fps
Color space : YUV
Chroma subsampling : 4:2:0
Bit depth : 8 bits
Scan type : Progressive
Title : RARBG
Language : English
Default : Yes
Forced : No
Color range : Limited
Color primaries : BT.709
Transfer characteristics : BT.709
Matrix coefficients : BT.709
Audio #1
ID : 2
Format : AC-3
Format/Info : Audio Coding 3
Mode extension : CM (complete main)
Format settings, Endianness : Big
Codec ID : A_AC3
Duration : 1h 30mn
Bit rate mode : Constant
Bit rate : 448 Kbps
Channel(s) : 6 channels
Channel positions : Front: L C R, Side: L R, LFE
Sampling rate : 48.0 KHz
Compression mode : Lossy
Delay relative to video : 250ms
Stream size : 290 MiB (9%)
Title : License | R5
Language : Russian
Default : Yes
Forced : Yes
Audio #2
ID : 3
Format : AC-3
Format/Info : Audio Coding 3
Mode extension : CM (complete main)
Format settings, Endianness : Big
Codec ID : A_AC3
Duration : 1h 30mn
Bit rate mode : Constant
Bit rate : 192 Kbps
Channel(s) : 2 channels
Channel positions : Front: L R
Sampling rate : 48.0 KHz
Compression mode : Lossy
Stream size : 124 MiB (4%)
Title : Antonio VO
Language : Russian
Default : No
Forced : No
Audio #3
ID : 4
Format : AAC
Format/Info : Advanced Audio Codec
Format profile : LC
Codec ID : A_AAC
Duration : 1h 30mn
Channel(s) : 2 channels
Channel positions : Front: L R
Sampling rate : 48.0 KHz
Compression mode : Lossy
Title : Original
Language : English
Default : No
Forced : No
Text
ID : 5
Format : UTF-8
Codec ID : S_TEXT/UTF8
Codec ID/Info : UTF-8 Plain Text
Title : Antonio
Language : Russian
Default : No
Forced : No
Скриншоты
Скачать

Скачать торрент!

Как скачивать? · Что такое торрент? · Рейтинг и ограничения

Сайт не распространяет и не хранит электронные версии произведений, а лишь предоставляет доступ к создаваемому пользователями каталогу ссылок на торрент-файлы, которые содержат только списки хеш-сумм

[Профиль] [ЛС]
Показать сообщения:    
Ответить на тему

Текущее время: Сегодня 07:06

Часовой пояс: GMT + 4



Вы не можете начинать темы
Вы не можете отвечать на сообщения
Вы не можете редактировать свои сообщения
Вы не можете удалять свои сообщения
Вы не можете голосовать в опросах
Вы не можете прикреплять файлы к сообщениям
Вы не можете скачивать файлы