Поклонник / The Boy Next Door (Роб Коэн / Rob Cohen) [2015, США, триллер, BDRip 720p] Dub + Sub (Rus, Ukr, Eng) + Comments + Original Eng

Ответить на тему
 
Автор Сообщение

user ®

Стаж: 7 лет 7 месяцев

Сообщений: 20008

Пост Пост: #1 от 15-Авг-2015 01:15

[Цитировать]

-Поклонник / The Boy Next Door
«A moment she couldn't resist, an obsession he can't control»
-- Страна: США
Студия: 20th Century Fox
Жанр: триллер
Год выпуска: 2015
Продолжительность: 01:30:33
Перевод: Профессиональный (дублированный) BD CEE
Cубтитры: RUS (Full, Forced), UKR (Full), ENG (Full, SDH, SDH.COLORED)
Оригинальная аудиодорожка: English
Навигация по главам: присутствует - 20 глав--Режиссер:
Роб Коэн / Rob Cohen--В ролях:
Дженнифер Лопез (Claire Peterson), Райан Гузман (Noah Sandborn), Йен Нельсон (Kevin Peterson), Джон Корбетт (Garrett Peterson), Кристин Ченоуэт (Vicky Lansing), Лекси Аткинс (Allie Callahan), Хилл Харпер (Principal Edward Warren), Джек Уоллес (Mr. Sandborn), Адам Хикс (Jason Zimmer), Франсуа Чау (Detective Johnny Chou).--Описание:
Фильм рассказывает об учительнице литературы Клэр Петерсон. Клэр знает о том, что муж изменяет ей, но тянет с разводом. Однажды, в дом по соседству въезжает харизматичный 19-летний красавчик Ной, который начинает оказывать Клэр повышенное внимание. Поддавшись слабости, Клэр проводит с ним ночь. Но она и не подозревала, что в скором времени влечение Ноя к ней перерастет в опасную одержимость…-- --Download Sample--Тип релиза: BD-Rip 720p | thx: [url=http://***/forum/viewtopic.php?t=5011436]The Boy Next Door 2015 1080p CEE Blu-ray AVC DTS-HD MA 5.1[/url]
Контейнер: MKV--Видео: 1 280x534 at 23.976 fps, MPEG-4 AVC, x264 @ L4.1, crf, ~7284 kbps avg
Аудио#1: 48.0 kHz, DTS, 3/2 (L,C,R,l,r) + LFE ch, ~768.00 kbps | DUB CEE
Аудио#2: 48.0 kHz, DTS, 3/2 (L,C,R,l,r) + LFE ch, ~1509.00 kbps | Original
Аудио#3: 48.0 kHz, AC3 Dolby Digital, 2/0 (L,R) ch, ~192.00 kbps | Commentary by Rob Cohen
Формат субтитров: softsub (SRT*)
-
-
MediaInfo
Общее
Уникальный идентификатор : 210824433870120520632027393733237993223 (0x9E9B4F1BED8791369A7D22CC2698EF07)
Полное имя : D:\Фильмы\The.Boy.Next.Door.2015.720p.BluRay.AVC.х264.DTS.Rus.Eng.mkv
Формат : Matroska
Версия формата : Version 4 / Version 2
Размер файла : 6,30 Гбайт
Продолжительность : 1 ч. 30 м.
Общий поток : 9951 Кбит/сек
Дата кодирования : UTC 2015-08-14 11:07:48
Программа кодирования : mkvmerge v6.1.0 ('Old Devil') built on Mar 4 2013 09:10:42
Библиотека кодирования : libebml v1.3.0 + libmatroska v1.4.0
Attachment : Yes
Видео
Идентификатор : 1
Формат : AVC
Формат/Информация : Advanced Video Codec
Профиль формата : High@L4.1
Параметр CABAC формата : Да
Параметр ReFrames формата : 11 кадров
Идентификатор кодека : V_MPEG4/ISO/AVC
Продолжительность : 1 ч. 30 м.
Битрейт : 7284 Кбит/сек
Ширина : 1280 пикселей
Высота : 534 пикселя
Соотношение сторон : 2,40:1
Режим частоты кадров : Постоянный
Частота кадров : 23,976 кадра/сек
Цветовое пространство : YUV
Субдискретизация насыщенности : 4:2:0
Битовая глубина : 8 бит
Тип развёртки : Прогрессивная
Бит/(Пиксели*Кадры) : 0.444
Размер потока : 4,61 Гбайт (73%)
Заголовок : Поклонник / The Boy Next Door 2015 720p - © ***
Библиотека кодирования : x264 core 148 r2579kMod 73ae2d1
Настройки программы : cabac=1 / ref=11 / deblock=1:-3:-3 / analyse=0x3:0x113 / me=umh / subme=11 / psy=1 / fade_compensate=0.00 / psy_rd=1.00:0.00 / mixed_ref=1 / me_range=64 / chroma_me=1 / trellis=2 / 8x8dct=1 / cqm=0 / deadzone=21,11 / fast_pskip=0 / chroma_qp_offset=-2 / threads=6 / lookahead_threads=1 / sliced_threads=0 / nr=0 / decimate=1 / interlaced=0 / bluray_compat=0 / constrained_intra=0 / fgo=0 / bframes=15 / b_pyramid=2 / b_adapt=2 / b_bias=0 / direct=3 / weightb=1 / open_gop=0 / weightp=2 / keyint=230 / keyint_min=23 / scenecut=40 / intra_refresh=0 / rc_lookahead=70 / rc=crf / mbtree=0 / crf=16.3850 / qcomp=0.65 / qpmin=0 / qpmax=69 / qpstep=4 / vbv_maxrate=62500 / vbv_bufsize=78125 / crf_max=0.0 / nal_hrd=none / filler=0 / ip_ratio=1.25 / pb_ratio=1.20 / aq=2:0.85
Язык : English
Default : Нет
Forced : Нет
Аудио #1
Идентификатор : 2
Формат : DTS
Формат/Информация : Digital Theater Systems
Режим : 16
Параметр Endianness формата : Big
Идентификатор кодека : A_DTS
Продолжительность : 1 ч. 30 м.
Вид битрейта : Постоянный
Битрейт : 768 Кбит/сек
Каналы : 6 каналов
Расположение каналов : Front: L C R, Side: L R, LFE
Частота : 48,0 КГц
Битовая глубина : 24 бит
Метод сжатия : С потерями
Размер потока : 498 Мбайт (8%)
Заголовок : DTS 5.1 @ 768 kbps - DUB CEE
Язык : Russian
Default : Да
Forced : Нет
Аудио #2
Идентификатор : 3
Формат : DTS
Формат/Информация : Digital Theater Systems
Режим : 16
Параметр Endianness формата : Big
Идентификатор кодека : A_DTS
Продолжительность : 1 ч. 30 м.
Вид битрейта : Постоянный
Битрейт : 1509 Кбит/сек
Каналы : 6 каналов
Расположение каналов : Front: L C R, Side: L R, LFE
Частота : 48,0 КГц
Битовая глубина : 24 бит
Метод сжатия : С потерями
Размер потока : 979 Мбайт (15%)
Заголовок : DTS 5.1 @ 1509 kbps - Original
Язык : English
Default : Нет
Forced : Нет
Аудио #3
Идентификатор : 4
Формат : AC-3
Формат/Информация : Audio Coding 3
Профиль формата : Dolby Digital
Расширение режима : CM (complete main)
Параметр Endianness формата : Big
Идентификатор кодека : A_AC3
Продолжительность : 1 ч. 30 м.
Вид битрейта : Постоянный
Битрейт : 192 Кбит/сек
Каналы : 2 канала
Расположение каналов : Front: L R
Частота : 48,0 КГц
Битовая глубина : 16 бит
Метод сжатия : С потерями
Размер потока : 125 Мбайт (2%)
Заголовок : AC3 2.0 @ 192 kbps - Commentary by Rob Cohen
Язык : English
Default : Нет
Forced : Нет
Текст #1
Идентификатор : 5
Формат : UTF-8
Идентификатор кодека : S_TEXT/UTF8
Идентификатор кодека/Информация : UTF-8 Plain Text
Заголовок : Forced
Язык : Russian
Default : Да
Forced : Нет
Текст #2
Идентификатор : 6
Формат : UTF-8
Идентификатор кодека : S_TEXT/UTF8
Идентификатор кодека/Информация : UTF-8 Plain Text
Заголовок : Full
Язык : Russian
Default : Нет
Forced : Нет
Текст #3
Идентификатор : 7
Формат : UTF-8
Идентификатор кодека : S_TEXT/UTF8
Идентификатор кодека/Информация : UTF-8 Plain Text
Заголовок : Full
Язык : Ukrainian
Default : Нет
Forced : Нет
Текст #4
Идентификатор : 8
Формат : UTF-8
Идентификатор кодека : S_TEXT/UTF8
Идентификатор кодека/Информация : UTF-8 Plain Text
Заголовок : Full
Язык : English
Default : Нет
Forced : Нет
Текст #5
Идентификатор : 9
Формат : UTF-8
Идентификатор кодека : S_TEXT/UTF8
Идентификатор кодека/Информация : UTF-8 Plain Text
Заголовок : SDH
Язык : English
Default : Нет
Forced : Нет
Текст #6
Идентификатор : 10
Формат : UTF-8
Идентификатор кодека : S_TEXT/UTF8
Идентификатор кодека/Информация : UTF-8 Plain Text
Заголовок : SDH.COLORED
Язык : English
Default : Нет
Forced : Нет
Меню
00:00:00.000 : en:Chapter 1
00:04:29.769 : en:Chapter 2
00:10:39.931 : en:Chapter 3
00:15:32.890 : en:Chapter 4
00:20:31.021 : en:Chapter 5
00:24:41.730 : en:Chapter 6
00:26:53.570 : en:Chapter 7
00:30:49.681 : en:Chapter 8
00:35:51.441 : en:Chapter 9
00:40:20.627 : en:Chapter 10
00:45:47.370 : en:Chapter 11
00:49:24.795 : en:Chapter 12
00:53:28.956 : en:Chapter 13
00:56:43.650 : en:Chapter 14
01:00:45.851 : en:Chapter 15
01:03:44.988 : en:Chapter 16
01:09:31.042 : en:Chapter 17
01:14:06.609 : en:Chapter 18
01:19:50.953 : en:Chapter 19
01:24:33.527 : en:Chapter 20
Скриншоты log x264
x264 [info]: frame I:996 Avg QP:15.32 size:117310
x264 [info]: frame P:27221 Avg QP:16.00 size: 58652
x264 [info]: frame B:102066 Avg QP:17.54 size: 33064
x264 [info]: consecutive B-frames: 2.0% 2.2% 6.8% 15.5% 14.4% 51.7% 4.2% 0.8% 0.6% 0.6% 0.5% 0.3% 0.1% 0.0% 0.0% 0.2%
x264 [info]: ref P L0: 40.8% 8.9% 19.4% 8.7% 6.5% 4.2% 3.9% 2.1% 2.1% 1.6% 1.7% 0.2% 0.0%
x264 [info]: ref B L0: 68.6% 13.1% 6.3% 3.8% 2.5% 2.0% 1.5% 1.1% 0.7% 0.3%
x264 [info]: ref B L1: 91.9% 8.1%
x264 [info]: kb/s:7490.97
encoded 130283 frames, 7490.97 kb/s
Comparison
-----------------------Source ----------------- vs ------------------ Encode --------------------



Цитата:
  • Сохранены оригинальные чаптеры как на Blu-ray.
  • За субтитры спасибо Elheym
Скачать

Скачать торрент!

Как скачивать? · Что такое торрент? · Рейтинг и ограничения

Сайт не распространяет и не хранит электронные версии произведений, а лишь предоставляет доступ к создаваемому пользователями каталогу ссылок на торрент-файлы, которые содержат только списки хеш-сумм

[Профиль] [ЛС]
Показать сообщения:    
Ответить на тему

Текущее время: Сегодня 00:06

Часовой пояс: GMT + 4



Вы не можете начинать темы
Вы не можете отвечать на сообщения
Вы не можете редактировать свои сообщения
Вы не можете удалять свои сообщения
Вы не можете голосовать в опросах
Вы не можете прикреплять файлы к сообщениям
Вы не можете скачивать файлы