Бродяга-миллиардер / The Billion Dollar Hobo (Стюарт Э. МакГоун / Stuart E. McGowan) [1977, США, комедия, семейный, HDTV 1080i] DVO (НТВ+) + Original Eng

Ответить на тему
 
Автор Сообщение

user ®

Стаж: 7 лет 7 месяцев

Сообщений: 20008

Пост Пост: #1 от 15-Авг-2015 01:15

[Цитировать]

Бродяга-миллиардер / The Billion Dollar Hobo- Страна: США
Студия: The International Picture Show Company
Жанр: комедия, семейный
Год выпуска: 1977
Продолжительность: 01:33:34-Перевод: Профессиональный (двухголосый закадровый) НТВ+
Cубтитры: нет
Оригинальная аудиодорожка: английский-Режиссер: Стюарт Э. МакГоун / Stuart E. McGowan
В ролях: Тим Конвэй, Уилл Джиэр, Эрик Уэстон, Сидни Лэссик, Джон Майхерс, Фрэнк Сиверо, Шарон Кларк, Виктория Кэрролл...- | Релиз: -Описание: Миллиардер, нажив свое состояние в трудные времена великой депрессии, оставляет завещание своему племяннику, но так как он сам добивался своего состояния трудным путем, решил, что племянник тоже должен испытать все прелести трудной жизни на себе. Он должен быть бродягой, без гроша в кармане, скитаться по железной дороге. Задание племянник получает необычное, в населенный пункт он должен добираться строго за указанное время, по каждому прибытию в населенный пункт он должен получать письмо, где будет указана следующая цель, он не должен упоминать свое настоящее имя, ему дают другое, в помощь преодоление этого сложного задания миллиардер дает племяннику собаку, которая постоянно должна находиться с ним и ему помогать. Только испытав эти трудности, он получит огромное состояние в наследство.-Семпл: http://sendfile.su/1145918-Тип релиза: HDTV 1080i
Контейнер: TS
Видео: 1920x1080i (16:9), 25.000 fps, AVC, ~7140 kbps, 0.138 bits/pixel
Аудио 1: Русский, 48.0 KHz, MPEG-1 Audio layer 2, 2 ch, 192 kbps
Аудио 2: English, 48.0 KHz, MPEG-1 Audio layer 2, 2 ch, 192 kbps
MediaInfo
GeneralID : 1 (0x1)Complete name : The Billion Dollar Hobo 1977 MGMHD 1080i.rus.eng.tsFormat : MPEG-TSFile size : 5.18 GiBDuration : 1h 33mnOverall bit rate mode : VariableOverall bit rate : 7 919 KbpsMaximum Overall bit rate : 35.5 Mbps
VideoID : 4113 (0x1011)Menu ID : 1 (0x1)Format : AVCFormat/Info : Advanced Video CodecFormat profile : Main@L4Format settings, CABAC : YesFormat settings, ReFrames : 4 framesCodec ID : 27Duration : 1h 33mnBit rate : 7 140 KbpsWidth : 1 920 pixelsHeight : 1 080 pixelsDisplay aspect ratio : 16:9Frame rate : 25.000 fpsStandard : ComponentColor space : YUVChroma subsampling : 4:2:0Bit depth : 8 bitsScan type : InterlacedScan order : Top Field FirstBits/(Pixel*Frame) : 0.138Stream size : 4.67 GiB (90%)Color range : LimitedColor primaries : BT.709Transfer characteristics : BT.709Matrix coefficients : BT.709
Audio #1ID : 4352 (0x1100)Menu ID : 1 (0x1)Format : MPEG AudioFormat version : Version 1Format profile : Layer 2Codec ID : 4Duration : 1h 33mnBit rate mode : ConstantBit rate : 192 KbpsChannel(s) : 2 channelsSampling rate : 48.0 KHzCompression mode : LossyStream size : 129 MiB (2%)Language : Russian
Audio #2ID : 4353 (0x1101)Menu ID : 1 (0x1)Format : MPEG AudioFormat version : Version 1Format profile : Layer 2Codec ID : 4Duration : 1h 33mnBit rate mode : ConstantBit rate : 192 KbpsChannel(s) : 2 channelsSampling rate : 48.0 KHzCompression mode : LossyStream size : 129 MiB (2%)Language : English
Скриншоты
Скачать

Скачать торрент!

Как скачивать? · Что такое торрент? · Рейтинг и ограничения

Сайт не распространяет и не хранит электронные версии произведений, а лишь предоставляет доступ к создаваемому пользователями каталогу ссылок на торрент-файлы, которые содержат только списки хеш-сумм

[Профиль] [ЛС]
Показать сообщения:    
Ответить на тему

Текущее время: Сегодня 10:11

Часовой пояс: GMT + 4



Вы не можете начинать темы
Вы не можете отвечать на сообщения
Вы не можете редактировать свои сообщения
Вы не можете удалять свои сообщения
Вы не можете голосовать в опросах
Вы не можете прикреплять файлы к сообщениям
Вы не можете скачивать файлы