Как закончить школу / Making the Grade (Дориан Уолкер / Dorian Walker) [1984, США, мелодрама, комедия, HDTV 1080i] DVO (НТВ+) + Original Eng

Ответить на тему
 
Автор Сообщение

user ®

Стаж: 7 лет 7 месяцев

Сообщений: 20008

Пост Пост: #1 от 15-Авг-2015 01:15

[Цитировать]

Как закончить школу / Making the Grade- Страна: США
Студия: The Cannon Group, Golan-Globus Productions | MGM/UA
Жанр: мелодрама, комедия
Год выпуска: 1984
Продолжительность: 01:39:38-Перевод: Профессиональный (двухголосый закадровый) НТВ+ | Людмила Шувалова, Михаил Тихонов
Cубтитры: нет
Оригинальная аудиодорожка: английский-Режиссер: Дориан Уолкер / Dorian Walker
В ролях: Джадд Нельсон, Джонна Ли, Гордон Джамп, Уолтер Олкевич, Рональд Лейси- | Релиз: -Описание: Ленивый ученик частной школы, сынок богатых родителей, Пальмер Вудроу нанимает умного, но бедного тинэйджера Эдди Китона, чтобы тот ходил в школу вместо него. Сам лентяй отправляется отдыхать в Европу. Эдди влюбляется в ученицу этой частной школы Трейси, чем вызывает недовольство школьного хулигана Биффа. Когда в школе появляется кредитор Эдди с требованием срочно выплатить долг, а Пальмер слишком рано возвращается из Европы, тайное постепенно становится явным. Закончить школу теперь будет сложно и Пальмеру, и Эдди.-Семпл: http://sendfile.su/1145925-Тип релиза: HDTV 1080i
Контейнер: TS
Видео: 1920x1080i (16:9), 25.000 fps, AVC, ~8130 kbps, 0.157 bits/pixel
Аудио 1: Русский, 48.0 KHz, MPEG-1 Audio layer 2, 2 ch, 192 kbps
Аудио 2: English, 48.0 KHz, MPEG-1 Audio layer 2, 2 ch, 192 kbps
MediaInfo
GeneralID : 1 (0x1)Complete name : Making the Grade 1984 MGMHD 1080i.rus.eng.tsFormat : MPEG-TSFile size : 6.24 GiBDuration : 1h 39mnOverall bit rate mode : VariableOverall bit rate : 8 961 KbpsMaximum Overall bit rate : 35.5 Mbps
VideoID : 4113 (0x1011)Menu ID : 1 (0x1)Format : AVCFormat/Info : Advanced Video CodecFormat profile : Main@L4Format settings, CABAC : YesFormat settings, ReFrames : 4 framesCodec ID : 27Duration : 1h 39mnBit rate : 8 130 KbpsWidth : 1 920 pixelsHeight : 1 080 pixelsDisplay aspect ratio : 16:9Frame rate : 25.000 fpsStandard : ComponentColor space : YUVChroma subsampling : 4:2:0Bit depth : 8 bitsScan type : InterlacedScan order : Top Field FirstBits/(Pixel*Frame) : 0.157Stream size : 5.66 GiB (91%)Color range : LimitedColor primaries : BT.709Transfer characteristics : BT.709Matrix coefficients : BT.709
Audio #1ID : 4352 (0x1100)Menu ID : 1 (0x1)Format : MPEG AudioFormat version : Version 1Format profile : Layer 2Codec ID : 4Duration : 1h 39mnBit rate mode : ConstantBit rate : 192 KbpsChannel(s) : 2 channelsSampling rate : 48.0 KHzCompression mode : LossyStream size : 137 MiB (2%)Language : Russian
Audio #2ID : 4353 (0x1101)Menu ID : 1 (0x1)Format : MPEG AudioFormat version : Version 1Format profile : Layer 2Codec ID : 4Duration : 1h 39mnBit rate mode : ConstantBit rate : 192 KbpsChannel(s) : 2 channelsSampling rate : 48.0 KHzCompression mode : LossyStream size : 137 MiB (2%)Language : English
Скриншоты
Скачать

Скачать торрент!

Как скачивать? · Что такое торрент? · Рейтинг и ограничения

Сайт не распространяет и не хранит электронные версии произведений, а лишь предоставляет доступ к создаваемому пользователями каталогу ссылок на торрент-файлы, которые содержат только списки хеш-сумм

[Профиль] [ЛС]
Показать сообщения:    
Ответить на тему

Текущее время: Сегодня 23:43

Часовой пояс: GMT + 4



Вы не можете начинать темы
Вы не можете отвечать на сообщения
Вы не можете редактировать свои сообщения
Вы не можете удалять свои сообщения
Вы не можете голосовать в опросах
Вы не можете прикреплять файлы к сообщениям
Вы не можете скачивать файлы