Антураж / Entourage (Даг Эллин / Doug Ellin) [2015, США , Комедия, WEBRip] Dub

Ответить на тему
 
Автор Сообщение

user ®

Стаж: 7 лет 7 месяцев

Сообщений: 20008

Пост Пост: #1 от 14-Авг-2015 15:57

[Цитировать]

Антураж / Entourage
Страна: США / Closest to the Hole Productions, Entourage Holdings, Home Box Office (HBO), Leverage Entertainment, RatPac Entertainment, Warner Bros. Pictures
Жанр: Комедия
Год выпуска: 2015
Продолжительность: 01:40:10
Перевод: Профессиональный (дублированный)[звук с TS]
Cубтитры: :Присутствуют вшитые китайские субтитры.
Режиссер: Даг Эллин / Doug Ellin
В ролях: Кевин Коннолли, Эдриан Гренье, Кевин Диллон, Джерри Феррара, Джереми Пивен, Эммануэль Шрики, Перри Ривз, Рекс Ли, Деби Мейзар, Риз Койро
Описание: Молодые ребята снимают фильмы и решают обосноваться в Голливуде, но как сделать это? История о том, как люди взбираются на кинематографический Олимп, преодолевая трудности с иронией и юмором. Их четверо. Им приходится принять условия и действовать в рамках их, чтобы их работу приняли и позволили пополнить список самых известных людей. Главный герой – Винс, желающий поставить Голливуд на колени. Но удастся ли ему достигнуть хоть чего-нибудь в этом опасном, жестоком и хитром мире американского кино? Или группа его помощника распадется, а он окажется на дне.… Насколько трудно быть частью этого загадочного и конкурентного мира? Сюжет расскажет о взлетах и падениях, на примере желающих стать популярными.
IMDb
КиноПоиск

Сэмпл:Скачать
Качество видео: WEBRip
Формат видео: AVI
Видео: Xvid 720x304 23.976fps 1817kbps 2.35:1
Аудио: Dolby AC3 48000Hz stereo 128kbps)
MediaInfo
General
Complete name : G:\Ent0ur4ge.2015.Dt.WEBRip.1400MB.avi
Format : AVI
Format/Info : Audio Video Interleave
File size : 1.37 GiB
Duration : 1h 40mn
Overall bit rate : 1 955 Kbps
Writing application : VirtualDubMod 1.5.10.3 | www.virtualdub-fr.org || (build 2550/release)
Writing library : VirtualDubMod build 2550/release
Video
ID : 0
Format : MPEG-4 Visual
Format profile : Advanced Simple@L5
Format settings, BVOP : 2
Format settings, QPel : No
Format settings, GMC : No warppoints
Format settings, Matrix : Default (MPEG)
Codec ID : XVID
Codec ID/Hint : XviD
Duration : 1h 40mn
Bit rate : 1 817 Kbps
Width : 720 pixels
Height : 304 pixels
Display aspect ratio : 2.35:1
Frame rate : 23.976 fps
Color space : YUV
Chroma subsampling : 4:2:0
Bit depth : 8 bits
Scan type : Progressive
Compression mode : Lossy
Bits/(Pixel*Frame) : 0.346
Stream size : 1.27 GiB (93%)
Writing library : XviD 1.2.1 (UTC 2008-12-04)
Audio
ID : 1
Format : AC-3
Format/Info : Audio Coding 3
Mode extension : CM (complete main)
Format settings, Endianness : Big
Codec ID : 2000
Duration : 1h 40mn
Bit rate mode : Constant
Bit rate : 128 Kbps
Channel(s) : 2 channels
Channel positions : Front: L R
Sampling rate : 48.0 KHz
Compression mode : Lossy
Stream size : 91.7 MiB (7%)
Alignment : Split accross interleaves
Interleave, duration : 42 ms (1.00 video frame)
Interleave, preload duratio : 500 ms
Скриншот c названием фильма Скриншоты
Скачать

Скачать торрент!

Как скачивать? · Что такое торрент? · Рейтинг и ограничения

Сайт не распространяет и не хранит электронные версии произведений, а лишь предоставляет доступ к создаваемому пользователями каталогу ссылок на торрент-файлы, которые содержат только списки хеш-сумм

[Профиль] [ЛС]
Показать сообщения:    
Ответить на тему

Текущее время: Сегодня 20:21

Часовой пояс: GMT + 4



Вы не можете начинать темы
Вы не можете отвечать на сообщения
Вы не можете редактировать свои сообщения
Вы не можете удалять свои сообщения
Вы не можете голосовать в опросах
Вы не можете прикреплять файлы к сообщениям
Вы не можете скачивать файлы