Киллер / Представитель компании / Слуга компании / A Company Man / Hoi-sa-won (Лим Сан Юн / Lim Sang Yoon) [2012, Южная Корея, драма, криминал, боевик, HDRip] DVO ( ФСГ "Альянс")

Ответить на тему
 
Автор Сообщение

user ®

Стаж: 13 лет

Сообщений: 15071

Пост Пост: #1 от 14-Авг-2015 03:36

[Цитировать]

Киллер / Представитель компании / Слуга компании / A Company Man / Hoi-sa-won
Страна: Южная Корея
Жанр: драма, криминал, боевик
Год выпуска: 2012
Продолжительность: 01:36:18
Перевод: Любительский (двухголосый закадровый) [ Ворон и Sandairina / ФСГ "Альянс"]
Оригинальная аудиодорожка: нет
Cубтитры:нет
Режиссер: Лим Сан Юн / Lim Sang Yoon
В ролях: Со Чжи Соп, Ли Ми Ён, Квак До Вон, Ким Дон Джун, Ли Кён Ён, Ю Ха Бок
Описание:Хьён-до — с виду представитель респектабельной компании по торговле металлом. Никто и не подозревает, что эта компания скрывает команду наемных убийц, убирающих, неугодных бизнесменам, людей. Для выполнения грязной работы, компания использует подёнщиков, которых убивают при первой же оплошности. Это и должно было произойти с Хуном. Проникшись жалостью, его последнюю просьбу (передать накопленные деньги его семье) соглашается выполнить Хьён-до, не думая о том, что жалость в его работе приравнена к смерти. Столкнувшись с добрыми человеческими отношениями семьи, которая приняла его как своего, он всеми силами пытается не обмануть это доверие и защитить тех, кто так внезапно пробудил в нем остатки человечности и стал дорог…
Релиз:

Качество: HDRip
Контейнер: AVI
Видео: 672x288 (2.33:1), 23.976 fps, XviD build 50 ~942 kbps avg, 0.20 bit/pixel
Аудио: 48 kHz, MPEG Layer 3, 2 ch, ~128.00 kbps avg

MI
Общее
Полное имя : D:\Мои рипы\Представитель_компании_HDRip_Некул.avi
Формат : AVI
Формат/Информация : Audio Video Interleave
Размер файла : 744 Мбайт
Продолжительность : 1 ч. 36 м.
Общий поток : 1080 Кбит/сек
Программа кодирования : VirtualDubMod 1.5.10.3 | www.virtualdub-fr.org || (build 2550/release)
Библиотека кодирования : VirtualDubMod build 2550/release
Видео
Идентификатор : 0
Формат : MPEG-4 Visual
Профиль формата : Advanced Simple@L5
Параметр BVOP формата : 2
Параметр QPel формата : Нет
Параметр GMC формата : Без точки перехода
Параметр матрицы формата : Default (MPEG)
Идентификатор кодека : XVID
Идентификатор кодека/Подсказка : XviD
Продолжительность : 1 ч. 36 м.
Битрейт : 942 Кбит/сек
Ширина : 672 пикселя
Высота : 288 пикселей
Соотношение сторон : 2,35:1
Частота кадров : 23,976 кадра/сек
Цветовое пространство : YUV
Субдискретизация насыщенности : 4:2:0
Битовая глубина : 8 бит
Тип развёртки : Прогрессивная
Метод сжатия : С потерями
Бит/(Пиксели*Кадры) : 0.203
Размер потока : 649 Мбайт (87%)
Библиотека кодирования : XviD 1.2.1 (UTC 2008-12-04)
Аудио
Идентификатор : 1
Формат : MPEG Audio
Версия формата : Version 1
Профиль формата : Layer 3
Идентификатор кодека : 55
Идентификатор кодека/Подсказка : MP3
Продолжительность : 1 ч. 36 м.
Вид битрейта : Постоянный
Битрейт : 128 Кбит/сек
Каналы : 2 канала
Частота : 48,0 КГц
Метод сжатия : С потерями
Размер потока : 88,2 Мбайт (12%)
Выравнивание : Соединение по промежуткам
Продолжительность промежутка : 42 мс. (1,00 видеокадр)
Время предзагрузки промежутка : 504 мс.
Библиотека кодирования : LAME3.99r
Настройки программы : -m s -V 4 -q 2 -lowpass 17 -b 128
Скриншоты
Скачать

Скачать торрент! Киллер / Представитель компании / Слуга компании / A Company Man / Hoi-sa-won (Лим Сан Юн / Lim Sang Yoon) [2012, Южная Корея, драма, криминал, боевик, HDRip] DVO ( ФСГ "Альянс")

Как скачивать? · Что такое торрент? · Рейтинг и ограничения

Сайт не распространяет и не хранит электронные версии произведений, а лишь предоставляет доступ к создаваемому пользователями каталогу ссылок на торрент-файлы, которые содержат только списки хеш-сумм

[Профиль] [ЛС]
Показать сообщения:    
Ответить на тему

Текущее время: Сегодня 20:04

Часовой пояс: GMT + 4



Вы не можете начинать темы
Вы не можете отвечать на сообщения
Вы не можете редактировать свои сообщения
Вы не можете удалять свои сообщения
Вы не можете голосовать в опросах
Вы не можете прикреплять файлы к сообщениям
Вы не можете скачивать файлы