Мужики и куры / Mænd og høns (Андерс Томас Йенсен / Anders Thomas Jensen) [2015, Дания, Германия, комедия, драма, HDRip-AVC] VO (Vaxywod)

Ответить на тему
 
Автор Сообщение

user ®

Стаж: 7 лет 7 месяцев

Сообщений: 20008

Пост Пост: #1 от 14-Авг-2015 03:36

[Цитировать]

Мужики и куры / Mænd og høns
Страна: Дания, Германия
Студия: M&M Productions
Жанр: комедия, драма
Год выпуска: 2015
Продолжительность: 01:39:28
Перевод: Одноголосый закадровый Vaxywod (по оригинальным субтитрам М. Васильева)
Cубтитры: нет
Режиссер: Андерс Томас Йенсен / Anders Thomas Jensen
В ролях: Мэс Миккельсен, Давид Денцик, Николай Ли Кууш, Николас Бро, Сёрен Маллинг, Оле Теструп, Бодиль Йёргенсен, Лисбет Даль, Бирте Нойман, Рикке Луиза Андерссон
Описание: Габриэль и Элиас — братья, но очень разные. Первый — измученный профессор, написавший книгу о смысле жизни, а второй — одержим женщинами, но никогда не пользуется у них популярностью, поэтому часто довольствуется собственной персоной. Однажды умирает отец братьев, оставляя после себя видеокассету, из которой они узнают шокирующую правду — они не родные братья, у них разные матери, а настоящий их отец живет неподалеку. Габриэль вместе с Элиасом отправляются на его поиски и вскоре встречают остальных братьев — Франца, Йозефа и Грегора, которые живут в поместье, а отец их все время спит. Усадьба полна загадок, и братьям предстоит узнать весьма неприятную правду…
Доп. информация: Андерс Томас Йенсен — автор сценария к более чем 100 фильмам, а также режиссер, создавший такие замечательные картины, как Адамовы яблоки, Мерцающие огни и Зеленые мясники. И вот, спустя 10 лет, Йенсен вернулся к режиссуре, а результат его творчества перед вами.
Исходник релиза и отраженная доп. информация : [url=http://***/forum/viewtopic.php?t=5015065]http://***/forum/viewtopic.php?t=5015065[/url]
Сэмпл: http://sendfile.su/1145372
Качество видео: HDRip-AVC
Формат видео: MKV
Видео: H.264, 1152x480, 25 fps, 2001 kbps, 0.145 bit/pixel
Аудио: AC3, 48 kHz, 2 ch, 192 kbps
MediaInfo
D:\Мужики и куры\Мужики и куры (Mænd og høns) (2015).mkv
General
Unique ID : 205822307320282397580374547132308314944 (0x9AD7EF3AAD7CB4A895231F3F7B90DB40)
Complete name : D:\Мужики и куры\Мужики и куры (Mænd og høns) (2015).mkv
Format : Matroska
File size : 1.51 GiB
Duration : 1h 39mn
Overall bit rate : 2 178 Kbps
Encoded date : UTC 2015-08-12 17:32:37
Writing application : mkvmerge v5.7.0 ('The Whirlwind') built on Jul 10 2012 18:39:26
Writing library : libebml v1.2.3 + libmatroska v1.3.0
Video #1
ID : 1
Format : AVC
Format/Info : Advanced Video Codec
Format profile : High@L4.1
Format settings, CABAC : Yes
Format settings, ReFrames : 9 frames
Codec ID : V_MPEG4/ISO/AVC
Duration : 1h 39mn
Bit rate : 2 001 Kbps
Width : 1 152 pixels
Height : 480 pixels
Display aspect ratio : 2.40:1
Frame rate : 25.000 fps
Color space : YUV
Chroma subsampling : 4:2:0
Bit depth : 8 bits
Scan type : Progressive
Bits/(Pixel*Frame) : 0.145
Stream size : 1.35 GiB (89%)
Writing library : x264 core 142 r2479 dd79a61
Encoding settings : cabac=1 / ref=9 / deblock=1:-3:-3 / analyse=0x3:0x133 / me=umh / subme=9 / psy=1 / psy_rd=1.00:0.00 / mixed_ref=1 / me_range=24 / chroma_me=1 / trellis=2 / 8x8dct=1 / cqm=0 / deadzone=21,11 / fast_pskip=0 / chroma_qp_offset=-2 / threads=6 / lookahead_threads=1 / sliced_threads=0 / nr=0 / decimate=1 / interlaced=0 / bluray_compat=0 / constrained_intra=0 / bframes=6 / b_pyramid=2 / b_adapt=2 / b_bias=0 / direct=3 / weightb=1 / open_gop=0 / weightp=2 / keyint=250 / keyint_min=25 / scenecut=40 / intra_refresh=0 / rc_lookahead=60 / rc=abr / mbtree=1 / bitrate=2001 / ratetol=1.0 / qcomp=0.60 / qpmin=0 / qpmax=69 / qpstep=4 / vbv_maxrate=62500 / vbv_bufsize=78125 / nal_hrd=none / filler=0 / ip_ratio=1.40 / aq=2:1.00
Color primaries : BT.709-5, BT.1361, IEC 61966-2-4, SMPTE RP177
Transfer characteristics : BT.709-5, BT.1361
Matrix coefficients : BT.709-5, BT.1361, IEC 61966-2-4 709, SMPTE RP177
Audio #2
ID : 2
Format : AC-3
Format/Info : Audio Coding 3
Mode extension : CM (complete main)
Codec ID : A_AC3
Duration : 1h 39mn
Bit rate mode : Constant
Bit rate : 192 Kbps
Channel(s) : 2 channels
Channel positions : Front: L R
Sampling rate : 48.0 KHz
Bit depth : 16 bits
Compression mode : Lossy
Stream size : 137 MiB (9%)
Скриншот c названием фильма Скриншоты
Скачать

Скачать торрент!

Как скачивать? · Что такое торрент? · Рейтинг и ограничения

Сайт не распространяет и не хранит электронные версии произведений, а лишь предоставляет доступ к создаваемому пользователями каталогу ссылок на торрент-файлы, которые содержат только списки хеш-сумм

[Профиль] [ЛС]
Показать сообщения:    
Ответить на тему

Текущее время: Сегодня 16:11

Часовой пояс: GMT + 4



Вы не можете начинать темы
Вы не можете отвечать на сообщения
Вы не можете редактировать свои сообщения
Вы не можете удалять свои сообщения
Вы не можете голосовать в опросах
Вы не можете прикреплять файлы к сообщениям
Вы не можете скачивать файлы