Второй шанс / Danny Collins (Дэн Фогельман / Dan Fogelman) [2015, США, драма, BDRip-AVC] Dub (iTunes) + ENG + SUB (eng)

Ответить на тему
 
Автор Сообщение

user ®

Стаж: 7 лет 7 месяцев

Сообщений: 20008

Пост Пост: #1 от 14-Авг-2015 00:30

[Цитировать]

Второй шанс / Danny Collins
«Письмо от Джона Леннона могло изменить его жизнь навсегда,
но письмо он получил лишь сейчас»

-
Страна: США
Жанр: драма
Год выпуска: 2015
Продолжительность: 01:47:10-Перевод: Профессиональный (дублированный) iTunes
Cубтитры: английские-Режиссер: Дэн Фогельман / Dan Fogelman
В ролях: Аль Пачино, Аннетт Бенинг, Дженнифер Гарнер, Бобби Каннавале, Кристофер Пламмер, Мелисса Бенойст, Ник Офферман, Джош Пек, Арти Манн, Катарина Час
Описание: Когда-то песни Дэнни Коллинза обожал весь мир. Однако уже много лет он ничего не пишет, почивая на лаврах былой славы. Но однажды музыканта находит адресованное ему много лет назад письмо от …Джона Леннона. И это переворачивает всю его жизнь.-Качество видео: BDRip-AVC [Danny.Collins.2015.1080p.BluRay.Remux.AVC.RU_DD5.1.DTS.HD.MA.5.1.mkv]
Формат видео: MKV-Видео: х.264, 1152x480 (2.40:1), 23.976 fps, ~2089 Кbps, 0.152 bit/pixel
Аудио 1: AC3 384 Кбит/сек (6 ch), 48,0 КГц, 16 бит | DUB
Аудио 2: AC3 448 Кбит/сек (6 ch), 48,0 КГц, 16 бит | ENG
Формат субтитров: SoftSub (SRT)
-- [url=http://***/forum/viewtopic.php?t=1677970] [/url]-
-
MediaInfo & log x264
log x264
x264 [info]: using SAR=1/1
x264 [info]: using cpu capabilities: MMX2 SSE2Fast SSSE3 SSE4.2
x264 [info]: profile High, level 4.1
x264 [info]: frame I:1304 Avg QP:15.24 size:102531
x264 [info]: frame P:29940 Avg QP:18.07 size: 23675
x264 [info]: frame B:122932 Avg QP:19.98 size: 6798
x264 [info]: consecutive B-frames: 1.4% 1.8% 4.9% 11.7% 16.8% 50.7% 6.4% 2.0% 1.3% 0.6% 0.7% 0.4% 0.3% 0.5% 0.6%
x264 [info]: mb I I16..4: 4.8% 74.1% 21.1%
x264 [info]: mb P I16..4: 0.3% 4.5% 0.8% P16..4: 31.1% 35.4% 17.3% 2.9% 0.3% skip: 7.5%
x264 [info]: mb B I16..4: 0.0% 0.3% 0.0% B16..8: 32.5% 18.1% 3.3% direct: 3.5% skip:42.2% L0:44.6% L1:44.4% BI:10.9%
x264 [info]: 8x8 transform intra:78.9% inter:52.8%
x264 [info]: direct mvs spatial:99.0% temporal:1.0%
x264 [info]: coded y,uvDC,uvAC intra: 93.1% 89.0% 75.9% inter: 18.5% 11.9% 2.8%
x264 [info]: i16 v,h,dc,p: 38% 13% 9% 40%
x264 [info]: i8 v,h,dc,ddl,ddr,vr,hd,vl,hu: 12% 9% 9% 9% 13% 13% 12% 12% 12%
x264 [info]: i4 v,h,dc,ddl,ddr,vr,hd,vl,hu: 12% 9% 5% 9% 14% 14% 13% 12% 12%
x264 [info]: i8c dc,h,v,p: 46% 19% 18% 16%
x264 [info]: Weighted P-Frames: Y:2.2% UV:0.9%
x264 [info]: ref P L0: 44.5% 9.4% 19.3% 6.5% 6.1% 4.1% 4.0% 2.0% 2.1% 1.9% 0.2% 0.0%
x264 [info]: ref B L0: 67.5% 13.7% 7.2% 3.7% 2.7% 2.3% 1.8% 0.8% 0.3%
x264 [info]: ref B L1: 91.0% 9.0%
x264 [info]: kb/s:2087.80
General
Unique ID                   : 182188386666660874058532749191463704517 (0x891034FA06A066D3A67FFDD2467A17C5)
Complete name               : D:\Danny.Collins.(2015).BDRip-AVC_R.G.All_Films.mkv
Format                      : Matroska
Format version              : Version 4 / Version 2
File size                   : 2.19 GiB
Duration                    : 1h 47mn
Overall bit rate            : 2 922 Kbps
Movie name                  : Второй шанс / Danny Collins (2015) BDRip-AVC by andre90
Encoded date                : UTC 2015-08-11 13:34:14
Writing application         : mkvmerge v8.2.0 ('World of Adventure') 32bit
Writing library             : libebml v1.3.1 + libmatroska v1.4.2
Attachements                : cover.jpg
DURATION                    : 01:47:10.496000000
NUMBER_OF_FRAMES            : 200953
NUMBER_OF_BYTES             : 360107776
_STATISTICS_WRITING_APP     : mkvmerge v8.2.0 ('World of Adventure') 32bit
_STATISTICS_WRITING_DATE_UT : 2015-08-11 13:34:14
_STATISTICS_TAGS            : BPS DURATION NUMBER_OF_FRAMES NUMBER_OF_BYTES
Video
ID                          : 1
Format                      : AVC
Format/Info                 : Advanced Video Codec
Format profile              : High@L4.1
Format settings, CABAC      : Yes
Format settings, ReFrames   : 10 frames
Codec ID                    : V_MPEG4/ISO/AVC
Duration                    : 1h 47mn
Bit rate                    : 2 089 Kbps
Width                       : 1 152 pixels
Height                      : 480 pixels
Display aspect ratio        : 2.40:1
Frame rate mode             : Constant
Frame rate                  : 23.976 fps
Color space                 : YUV
Chroma subsampling          : 4:2:0
Bit depth                   : 8 bits
Scan type                   : Progressive
Bits/(Pixel*Frame)          : 0.158
Stream size                 : 1.52 GiB (70%)
Writing library             : x264 core 146 r2538 121396c
Encoding settings           : cabac=1 / ref=10 / deblock=1:-1:-2 / analyse=0x3:0x133 / me=esa / subme=11 / psy=1 / psy_rd=0.91:0.00 / mixed_ref=1 / me_range=48 / chroma_me=1 / trellis=2 / 8x8dct=1 / cqm=0 / deadzone=21,11 / fast_pskip=0 / chroma_qp_offset=-2 / threads=6 / lookahead_threads=1 / sliced_threads=0 / nr=0 / decimate=1 / interlaced=0 / bluray_compat=0 / constrained_intra=0 / bframes=14 / b_pyramid=2 / b_adapt=2 / b_bias=0 / direct=3 / weightb=1 / open_gop=0 / weightp=2 / keyint=240 / keyint_min=23 / scenecut=40 / intra_refresh=0 / rc_lookahead=40 / rc=2pass / mbtree=0 / bitrate=2089 / ratetol=1.0 / qcomp=0.60 / qpmin=0 / qpmax=69 / qpstep=4 / cplxblur=20.0 / qblur=0.5 / vbv_maxrate=50000 / vbv_bufsize=62500 / nal_hrd=none / filler=0 / ip_ratio=1.40 / pb_ratio=1.30 / aq=2:1.00
Default                     : Yes
Forced                      : No
Audio #1
ID                          : 2
Format                      : AC-3
Format/Info                 : Audio Coding 3
Mode extension              : CM (complete main)
Format settings, Endianness : Big
Codec ID                    : A_AC3
Duration                    : 1h 47mn
Bit rate mode               : Constant
Bit rate                    : 384 Kbps
Channel(s)                  : 6 channels
Channel positions           : Front: L C R, Side: L R, LFE
Sampling rate               : 48.0 KHz
Compression mode            : Lossy
Stream size                 : 294 MiB (13%)
Title                       : Dub (iTunes)
Language                    : Russian
Default                     : No
Forced                      : No
Audio #2
ID                          : 3
Format                      : AC-3
Format/Info                 : Audio Coding 3
Mode extension              : CM (complete main)
Format settings, Endianness : Big
Codec ID                    : A_AC3
Duration                    : 1h 47mn
Bit rate mode               : Constant
Bit rate                    : 448 Kbps
Channel(s)                  : 6 channels
Channel positions           : Front: L C R, Side: L R, LFE
Sampling rate               : 48.0 KHz
Compression mode            : Lossy
Stream size                 : 343 MiB (15%)
Language                    : English
Default                     : No
Forced                      : No
Text
ID                          : 4
Format                      : UTF-8
Codec ID                    : S_TEXT/UTF8
Codec ID/Info               : UTF-8 Plain Text
Title                       : SDH
Language                    : English
Default                     : No
Forced                      : No
Menu
00:00:00.000                : en:00:00:00.000
00:03:55.944                : en:00:03:55.944
00:11:27.437                : en:00:11:27.437
00:16:10.428                : en:00:16:10.428
00:19:58.656                : en:00:19:58.656
00:24:40.646                : en:00:24:40.646
00:29:53.375                : en:00:29:53.375
00:36:10.335                : en:00:36:10.335
00:40:14.370                : en:00:40:14.370
00:44:05.518                : en:00:44:05.518
00:49:00.813                : en:00:49:00.813
00:55:55.477                : en:00:55:55.477
01:02:47.514                : en:01:02:47.514
01:07:23.498                : en:01:07:23.498
01:14:47.650                : en:01:14:47.650
01:20:12.850                : en:01:20:12.850
01:25:11.773                : en:01:25:11.773
01:30:40.393                : en:01:30:40.393
01:36:00.838                : en:01:36:00.838
01:41:24.829                : en:01:41:24.829
Скриншоты
Скачать

Скачать торрент!

Как скачивать? · Что такое торрент? · Рейтинг и ограничения

Сайт не распространяет и не хранит электронные версии произведений, а лишь предоставляет доступ к создаваемому пользователями каталогу ссылок на торрент-файлы, которые содержат только списки хеш-сумм

[Профиль] [ЛС]
Показать сообщения:    
Ответить на тему

Текущее время: Сегодня 09:53

Часовой пояс: GMT + 4



Вы не можете начинать темы
Вы не можете отвечать на сообщения
Вы не можете редактировать свои сообщения
Вы не можете удалять свои сообщения
Вы не можете голосовать в опросах
Вы не можете прикреплять файлы к сообщениям
Вы не можете скачивать файлы