Воровка / Burglar (Хью Уилсон / Hugh Wilson) [1987, США, Канада, комедия, криминал, WEB-DL 720p] MVO (Варус-Видео) + AVO (А. Михалев) + Sub Eng + Original Eng

Ответить на тему
 
Автор Сообщение

user ®

Стаж: 7 лет 7 месяцев

Сообщений: 20008

Пост Пост: #1 от 13-Авг-2015 21:24

[Цитировать]

Воровка / Burglar
Страна: США, Канада
Студия: Warner Bros. Pictures
Жанр: комедия, криминал
Год выпуска: 1987
Продолжительность: 01:42:02
Перевод: Профессиональный (многоголосый закадровый) Варус-Видео
Перевод 2: Авторский (одноголосый закадровый) А. Михалев
Cубтитры: английские
Оригинальная аудиодорожка: английский
Режиссер: Хью Уилсон / Hugh Wilson
В ролях: Вупи Голдберг, Боб Гоулдтуэйт, Дж. У. Бэйли, Лесли Энн Уоррен, Джеймс Хэнди, Анна Де Сальво, Элизабет Рушио, Вито Ругинис, Ларри Минтц, Рэй Берк, Эрик Поппик, Скотт Линкольн, Том Брэй, Натан Дэвис, Лия Сарджент, Стивен Шеллен, Фреди Олстер, Рик Хэмилтон, Дэннис Ричмонд, Билл Джеллифф, Майк Пневски, Гаррисон Хершбергер, Бренда Хэйес, Джон Х. Филдс, Бретт Маркс, Дэвид Партингтон, Джек О'Лири, Маргарет Ленси, Этан Филлипс
Описание: Единственная и неповторимая Вупи Голдберг в роли остроумной и изобретательной воровки Бернис Роденбарр! Пытаясь покончить со своим криминальным хобби, она решается «пойти на дело» в последний раз. Но там, где она, все идет убийственно неверно: в обчищенной квартире найден труп…Для того, чтобы раскрыть убийство, реабилитировать свое имя и одновременно избежать встречи с полицией и настоящим преступником, Бернис и ее чудаковатый друг — собачий парикмахер Карл — начинают собственное расследование…
Доп. информация: Многоголоска Варус-Видео (роли озвучивали: Ольга Кузнецова, Марина Тарасова, Александр Новиков). Спасибо Fikaloid за оцифровку звука.

Sample
Тип релиза: WEB-DL 720p
Контейнер: MKV
Видео: MPEG4 AVC Video, H264, 16:9, 1272x720, 23.976 fps, 3962 kbps
Аудио: Russian (AC3, 2 ch, 192 kbps, 16 bits, 48.0 KHz) - Варус
Аудио 2: Russian (AC3, 2 ch, 192 kbps, 16 bits, 48.0 KHz) - Михалев
Аудио 3: English (AC3, 2 ch, 192 kbps, 16 bits, 48.0 KHz) - оригинал
Формат субтитров: softsub (SRT)

MediaInfo
General
Unique ID : 199251599821699066266631781139732988302 (0x95E676566EEBC602A88B94CD1FBB818E)
Complete name : K:\Burglar WEB-DL 720p.mkv
Format : Matroska
Format version : Version 4 / Version 2
File size : 3.30 GiB
Duration : 1h 42mn
Overall bit rate : 4 634 Kbps
Encoded date : UTC 2015-08-12 07:55:12
Writing application : mkvmerge v6.1.0 ('Old Devil') built on Mar 2 2013 14:32:37
Writing library : libebml v1.3.0 + libmatroska v1.4.0
Video
ID : 1
Format : AVC
Format/Info : Advanced Video Codec
Format profile : High@L3.1
Format settings, CABAC : No
Format settings, ReFrames : 2 frames
Format settings, GOP : N=1
Codec ID : V_MPEG4/ISO/AVC
Duration : 1h 42mn
Bit rate : 3 966 Kbps
Width : 1 272 pixels
Height : 720 pixels
Display aspect ratio : 16:9
Frame rate mode : Constant
Frame rate : 23.976 fps
Color space : YUV
Chroma subsampling : 4:2:0
Bit depth : 8 bits
Scan type : Progressive
Bits/(Pixel*Frame) : 0.181
Stream size : 2.83 GiB (86%)
Language : English
Default : Yes
Forced : No
Color primaries : BT.709
Transfer characteristics : BT.709
Matrix coefficients : BT.709
Audio #1
ID : 2
Format : AC-3
Format/Info : Audio Coding 3
Mode extension : CM (complete main)
Format settings, Endianness : Big
Codec ID : A_AC3
Duration : 1h 42mn
Bit rate mode : Constant
Bit rate : 192 Kbps
Channel count : 2 channels
Channel positions : Front: L R
Sampling rate : 48.0 KHz
Bit depth : 16 bits
Compression mode : Lossy
Stream size : 140 MiB (4%)
Language : Russian
Default : Yes
Forced : Yes
Audio #2
ID : 3
Format : AC-3
Format/Info : Audio Coding 3
Mode extension : CM (complete main)
Format settings, Endianness : Big
Codec ID : A_AC3
Duration : 1h 42mn
Bit rate mode : Constant
Bit rate : 192 Kbps
Channel count : 2 channels
Channel positions : Front: L R
Sampling rate : 48.0 KHz
Bit depth : 16 bits
Compression mode : Lossy
Stream size : 140 MiB (4%)
Language : Russian
Default : No
Forced : No
Audio #3
ID : 4
Format : AC-3
Format/Info : Audio Coding 3
Format profile : Dolby Digital
Mode extension : CM (complete main)
Format settings, Endianness : Big
Codec ID : A_AC3
Duration : 1h 42mn
Bit rate mode : Constant
Bit rate : 192 Kbps
Channel count : 2 channels
Channel positions : Front: L R
Sampling rate : 48.0 KHz
Bit depth : 16 bits
Compression mode : Lossy
Stream size : 140 MiB (4%)
Language : English
Default : No
Forced : No
Text
ID : 5
Format : UTF-8
Codec ID : S_TEXT/UTF8
Codec ID/Info : UTF-8 Plain Text
Language : English
Default : No
Forced : No
Menu
00:00:00.000 : en:Nobody home (Time Out for the Burglar).
00:03:15.000 : en:Maid at work.
00:08:45.000 : en:Dissatisfied customer.
00:12:21.000 : en:Squeezed by Ray.
00:15:20.000 : en:The dentist's dilemma.
00:19:03.000 : en:Gems on ice.
00:23:22.000 : en:In the closet.
00:28:31.000 : en:Not an option.
00:30:15.000 : en:Ray's not happy.
00:32:39.000 : en:Pointing to Bernice.
00:35:20.000 : en:Detective work.
00:39:23.000 : en:Bernice's hideaway.
00:42:51.000 : en:Aquarium advice.
00:46:23.000 : en:Among yuppies form hell.
00:50:19.000 : en:About Christopher.
00:55:26.000 : en:Carl and the cops.
00:58:39.000 : en:Graybow.
01:03:17.000 : en:Carl's messenger service
01:05:13.000 : en:Cat burglar in the rain.
01:08:15.000 : en:Evidence on a dead man.
01:11:55.000 : en:Trapped.
01:14:37.000 : en:The chase is on!
01:19:22.000 : en:Hi, doc.
01:25:13.000 : en:Foggy renedezvous.
01:31:56.000 : en:The upper hand?
01:36:31.000 : en:End Credits (Time Out for the Burglar).
Скриншоты Торрент перезалит 12.08.2015 в 11:00 мск.
Заменены звуковые дорожки на более качественные - за которые спасибо Dreven.
Скачать

Скачать торрент!

Как скачивать? · Что такое торрент? · Рейтинг и ограничения

Сайт не распространяет и не хранит электронные версии произведений, а лишь предоставляет доступ к создаваемому пользователями каталогу ссылок на торрент-файлы, которые содержат только списки хеш-сумм

[Профиль] [ЛС]
Показать сообщения:    
Ответить на тему

Текущее время: Сегодня 10:06

Часовой пояс: GMT + 4



Вы не можете начинать темы
Вы не можете отвечать на сообщения
Вы не можете редактировать свои сообщения
Вы не можете удалять свои сообщения
Вы не можете голосовать в опросах
Вы не можете прикреплять файлы к сообщениям
Вы не можете скачивать файлы