Шарлотта Грей / Charlotte Gray (Джиллиан Армстронг / Gillian Armstrong) [2001, Великобритания, Австралия, Германия, драма, мелодрама, военный, WEB-DL 720p] MVO + Sub Rus, Eng + Original Eng

Ответить на тему
 
Автор Сообщение

user ®

Стаж: 7 лет 7 месяцев

Сообщений: 20008

Пост Пост: #1 от 13-Авг-2015 21:24

[Цитировать]

Шарлотта Грей / Charlotte Gray
Страна: Великобритания, Австралия, Германия
Студия: Ecosse Films, FilmFour и др.
Жанр: драма, мелодрама, военный
Год выпуска: 2001
Продолжительность: 02:01:30
Перевод: Профессиональный (многоголосый закадровый)
Cубтитры: русские, английские
Оригинальная аудиодорожка: английский
Режиссер: Джиллиан Армстронг / Gillian Armstrong
В ролях: Кейт Бланшетт, Джеймс Флит, Эбигейл Круттенден, Шарлотта МакДугалл, Руперт Пенри-Джонс, Роберт Хэндс, Том Гудман-Хилл, Майкл Фицджералд, Хью Росс, Мартин Олдфилд
Описание: Молодую шотландку Шарлотту Грей сбрасывают на парашюте в немецком тылу на юге Франции. Только ей известно, что у нее двойная миссия. Официально она была завербована британским правительством для выполнения специальной операции по связи с местными группами Сопротивления, которые борются партизанскими методами с оккупационной немецкой армией. Неофициально она ищет своего возлюбленного Питера — английского летчика, пропавшего без вести после того, как был сбит его самолет. По мере того, как более тесными становятся связи Шарлотты с борцами Сопротивления, которых возглавляет Жюльен Левад, она начинает понимать, что ее любовь к Франции и ее народу навсегда изменит ее жизнь.

Sample
Тип релиза: WEB-DL 720p
Контейнер: MKV
Видео: MPEG4 AVC Video, H264, 16:9, 1280x716, 23.976 fps, 4030 kbps
Аудио: Russian (AC3, 6 ch, 448 kbps, 16 bits, 48.0 KHz) - MVO
Аудио 2: English (AC3, 6 ch, 384 kbps, 16 bits, 48.0 KHz) - оригинал
Формат субтитров: softsub (SRT)

MediaInfo
General
Unique ID : 207590941944840001704273315696775610316 (0x9C2C8FA60D78C240B6886058D3793FCC)
Complete name : K:\Charlotte Gray 2001 WEB-DL 720p.mkv
Format : Matroska
Format version : Version 4 / Version 2
File size : 4.21 GiB
Duration : 2h 1mn
Overall bit rate : 4 960 Kbps
Encoded date : UTC 2015-08-12 06:54:46
Writing application : mkvmerge v6.1.0 ('Old Devil') built on Mar 2 2013 14:32:37
Writing library : libebml v1.3.0 + libmatroska v1.4.0
Video
ID : 1
Format : AVC
Format/Info : Advanced Video Codec
Format profile : High@L3.1
Format settings, CABAC : No
Format settings, ReFrames : 2 frames
Format settings, GOP : N=1
Codec ID : V_MPEG4/ISO/AVC
Duration : 2h 1mn
Bit rate : 4 030 Kbps
Width : 1 280 pixels
Height : 716 pixels
Display aspect ratio : 16:9
Frame rate mode : Constant
Frame rate : 23.976 fps
Color space : YUV
Chroma subsampling : 4:2:0
Bit depth : 8 bits
Scan type : Progressive
Bits/(Pixel*Frame) : 0.183
Stream size : 3.42 GiB (81%)
Language : English
Default : Yes
Forced : No
Color primaries : BT.709
Transfer characteristics : BT.709
Matrix coefficients : BT.709
Audio #1
ID : 2
Format : AC-3
Format/Info : Audio Coding 3
Mode extension : CM (complete main)
Format settings, Endianness : Big
Codec ID : A_AC3
Duration : 2h 1mn
Bit rate mode : Constant
Bit rate : 448 Kbps
Channel count : 6 channels
Channel positions : Front: L C R, Side: L R, LFE
Sampling rate : 48.0 KHz
Bit depth : 16 bits
Compression mode : Lossy
Stream size : 389 MiB (9%)
Language : Russian
Default : Yes
Forced : Yes
Audio #2
ID : 3
Format : AC-3
Format/Info : Audio Coding 3
Mode extension : CM (complete main)
Format settings, Endianness : Big
Codec ID : A_AC3
Duration : 2h 1mn
Bit rate mode : Constant
Bit rate : 384 Kbps
Channel count : 6 channels
Channel positions : Front: L C R, Side: L R, LFE
Sampling rate : 48.0 KHz
Bit depth : 16 bits
Compression mode : Lossy
Stream size : 334 MiB (8%)
Language : English
Default : No
Forced : No
Text #1
ID : 4
Format : UTF-8
Codec ID : S_TEXT/UTF8
Codec ID/Info : UTF-8 Plain Text
Language : Russian
Default : No
Forced : No
Text #2
ID : 5
Format : UTF-8
Codec ID : S_TEXT/UTF8
Codec ID/Info : UTF-8 Plain Text
Language : English
Default : No
Forced : No
Menu
00:00:00.000 : en:Traveling Credits.
00:03:02.000 : en:An invitation.
00:06:13.000 : en:Meeting Peter.
00:09:44.000 : en:Duty to be brave.
00:13:37.000 : en:Training.
00:16:42.000 : en:To France with hope.
00:19:59.000 : en:Dominique Welcome.
00:26:05.000 : en:Arrested.
00:33:02.000 : en:Julien's instructions.
00:36:36.000 : en:Levade's house.
00:42:39.000 : en:Unlucky Francoise.
00:44:36.000 : en:Costly sabotage.
00:47:52.000 : en:For someone you love.
00:50:18.000 : en:Occupied.
00:53:59.000 : en:Inquiries.
00:56:38.000 : en:Kiss of rescue.
01:00:56.000 : en:Meeting places.
01:04:34.000 : en:Blood and tears.
01:08:21.000 : en:At gunpoint.
01:13:10.000 : en:Mirabel's warning.
01:16:25.000 : en:Renech's threat.
01:19:52.000 : en:Survivor guilt.
01:24:51.000 : en:Jewish affairs.
01:28:46.000 : en:Julien's choice.
01:32:16.000 : en:Kiss of escape.
01:35:41.000 : en:Traded lives.
01:37:52.000 : en:Something yet to do.
01:41:34.000 : en:Cornered.
01:43:57.000 : en:Love letter.
01:47:52.000 : en:I can't go back.
01:52:59.000 : en:My name.
01:56:54.000 : en:End Credits.
Скриншоты
Скачать

Скачать торрент!

Как скачивать? · Что такое торрент? · Рейтинг и ограничения

Сайт не распространяет и не хранит электронные версии произведений, а лишь предоставляет доступ к создаваемому пользователями каталогу ссылок на торрент-файлы, которые содержат только списки хеш-сумм

[Профиль] [ЛС]
Показать сообщения:    
Ответить на тему

Текущее время: Сегодня 01:47

Часовой пояс: GMT + 4



Вы не можете начинать темы
Вы не можете отвечать на сообщения
Вы не можете редактировать свои сообщения
Вы не можете удалять свои сообщения
Вы не можете голосовать в опросах
Вы не можете прикреплять файлы к сообщениям
Вы не можете скачивать файлы