Звездная пыль / Stardust (Мэттью Вон / Matthew Vaughn) [2007, Великобритания, США, Исландия, фэнтези, BDRemux 1080p] Dub + MVO (Киномания) + DVO (Гланц & Королева) + VO + 3x AVO (Королев, Немахов, Дольский) + Original Eng + Sub Rus, Eng

Ответить на тему
 
Автор Сообщение

user ®

Стаж: 7 лет 7 месяцев

Сообщений: 20008

Пост Пост: #1 от 13-Авг-2015 21:24

[Цитировать]

Звездная пыль / Stardust«Сказка, которую не расскажешь на ночь»СВЕТЛОЙ ПАМЯТИ _[Peter Seamus Lorcan O'Toole]_[2 August 1932 – 14 December 2013]_ Страна: Великобритания, США, Исландия
Студия: Paramount
Жанр: фэнтези
Год выпуска: 2007
Продолжительность: 02:07:41
Перевод 1: Профессиональный (дублированный) |Дубляж, Blu-ray CEE_[Пифагор]_2007г|
Перевод 2: Профессиональный (многоголосый закадровый) |MVO, Киномания|
Перевод 3: Профессиональный (двухголосый закадровый) |Иващенко, Пётр Александрович_[Гланц]_ & Королева, Инна|
Перевод 4: Одноголосый закадровый |Нурмухаметов, Данис Василович|
Перевод 5: Авторский (одноголосый закадровый) |Владимир Королев|
Перевод 6: Авторский (одноголосый закадровый) |Юрий Немахов|
Перевод 7: Авторский (одноголосый закадровый) |Дольский, Андрей Игоревич|
Cубтитры: русские, английские
Оригинальная аудиодорожка: английский
Режиссер: Мэттью Вон / Matthew Vaughn
В ролях: Роберт Де Ниро /Robert De Niro/, Питер О`Тул /Peter O'Toole/, Чарли Кокс /Charlie Cox/, Клер Дэйнс /Claire Danes/, Мишель Пфайффер /Michelle Pfeiffer/, Сиенна Миллер /Sienna Miller/, Руперт Эверет /Rupert Everett/, Иэн МакКеллен /Ian McKellen/, Бимбо Харт /Bimbo Hart/, Алистер Макинтош /Alastair MacIntosh/, Дэвид Келли /David Kelly/, Бен Барнс /Ben Barnes/, Кейт Магован /Kate Magowan/, Мелани Хилл /Melanie Hill/, Генри Кавилл /Henry Cavill/, Натаниель Паркер /Nathaniel Parker
Описание: Маленькая английская деревенька отделена древней стеной от сверхъестественной параллельной вселенной, где царят магия и волшебство. Молодой Тристан Торн опрометчиво обещает самой красивой девушке деревни, что принесёт ей слетевшую с неба звезду, упавшую по ту сторону стены.
На своём пути по следам древних легенд Тристан встретит всесильного короля и его заговорщика-сына, могущественную ведьму, капитана пиратского корабля и хитроумного торговца, а также найдёт свою истинную любовь, ключ к пониманию своей сущности и судьбы, о которой он мог только мечтать.

Сэмпл: http://sendfile.su/1145262

Тип релиза: BDRemux 1080p
Контейнер: MKV
Видео: MPEG-4 AVC Video / 30059 kbps / 1080p / 23,976 fps / 16:9 / High Profile 4.1
Аудио 1: Russian / Dolby Digital Audio / 5.1 / 48 kHz / 448 kbps |Дубляж, Blu-ray CEE_[Пифагор]_2007г|
Аудио 2: Russian / Dolby Digital Audio / 5.1 / 48 kHz / 448 kbps (многоголосый, Киномания)
Аудио 3: Russian / DTS-HD Master Audio / 5.1 / 48 kHz / 3676 kbps / 24 bits (DTS Core: 5.1 / 48 kHz / 1510 kbps / 24 bits) |Иващенко, Пётр Александрович_[Гланц]_ & Королева, Инна|
Аудио 4: Russian / DTS-HD Master Audio / 5.1 / 48 kHz / 3660 kbps / 24 bits (DTS Core: 5.1 / 48 kHz / 1510 kbps / 24 bits) |Нурмухаметов, Данис Василович|
Аудио 5: Russian / DTS-HD Master Audio / 5.1 / 48 kHz / 3688 kbps / 24 bits (DTS Core: 5.1 / 48 kHz / 1510 kbps / 24 bits) |Королев, Владимир|
Аудио 6: Russian / DTS-HD Master Audio / 5.1 / 48 kHz / 3681 kbps / 24 bits (DTS Core: 5.1 / 48 kHz / 1510 kbps / 24 bits) |Немахов, Юрий Геннадьевич|
Аудио 7: Russian / DTS-HD Master Audio / 5.1 / 48 kHz / 3681 kbps / 24 bits (DTS Core: 5.1 / 48 kHz / 1510 kbps / 24 bits) |Дольский, Андрей Игоревич|
Аудио 8: English / DTS-HD Master Audio / 5.1 / 48 kHz / 3843 kbps / 24-bit (DTS Core: 5.1 / 48 kHz / 1510 kbps / 24-bit / DN -4dB) / ORIGINAL /
Аудио 9: English / Dolby Digital Audio / 2.0 / 48 kHz / 224 kbps / DN -4dB / |commentary by director Matthew Vaughn & writer Jane Goldman|
Формат субтитров: softsub (SRT)
MediaInfo
Общее
Уникальный идентификатор : 179772772861302326825304745196405571706 (0x873EFA0555D85E4F8804050161C6C07A)
Полное имя : D:\MOVIE\Peter O'Toole & Robert De Niro, Jr\Stardust_2007г\Stardust_2007г_Peter O'Toole & Robert De Niro, Jr.mkv
Формат : Matroska
Версия формата : Version 4 / Version 2
Размер файла : 47,6 Гбайт
Продолжительность : 2 ч. 7 м.
Режим общего битрейта : Переменный
Общий поток : 53,4 Мбит/сек
Название фильма : Stardust_2007г_Peter O'Toole & Robert De Niro, Jr
Дата кодирования : UTC 2015-08-11 20:11:51
Программа кодирования : mkvmerge v6.9.1 ('Blue Panther') 64bit built on Apr 18 2014 18:23:38
Библиотека кодирования : libebml v1.3.0 + libmatroska v1.4.1
Видео
Идентификатор : 1
Формат : AVC
Формат/Информация : Advanced Video Codec
Профиль формата : High@L4.1
Параметр CABAC формата : Да
Параметр ReFrames формата : 4 кадра
Параметр GOP формата : M=3, N=12
Идентификатор кодека : V_MPEG4/ISO/AVC
Продолжительность : 2 ч. 7 м.
Вид битрейта : Переменный
Максимальный битрейт : 37,0 Мбит/сек
Ширина : 1920 пикселей
Высота : 1080 пикселей
Соотношение сторон : 16:9
Режим частоты кадров : Постоянный
Частота кадров : 23,976 кадра/сек
Цветовое пространство : YUV
Субдискретизация насыщенности : 4:2:0
Битовая глубина : 8 бит
Тип развёртки : Прогрессивная
Заголовок : Stardust_2007г_Peter O'Toole & Robert De Niro, Jr
Язык : English
Default : Да
Forced : Нет
Основные цвета : BT.709
Характеристики трансфера : BT.709
Коэффициенты матрицы : BT.709
Аудио #1
Идентификатор : 2
Формат : AC-3
Формат/Информация : Audio Coding 3
Расширение режима : CM (complete main)
Параметр Endianness формата : Big
Идентификатор кодека : A_AC3
Продолжительность : 2 ч. 7 м.
Вид битрейта : Постоянный
Битрейт : 448 Кбит/сек
Каналы : 6 каналов
Расположение каналов : Front: L C R, Side: L R, LFE
Частота : 48,0 КГц
Битовая глубина : 16 бит
Метод сжатия : С потерями
Размер потока : 409 Мбайт (1%)
Заголовок : |Дубляж, Blu-ray CEE_[Пифагор]_2007г|
Язык : Russian
Default : Да
Forced : Нет
Аудио #2
Идентификатор : 3
Формат : AC-3
Формат/Информация : Audio Coding 3
Расширение режима : CM (complete main)
Параметр Endianness формата : Big
Идентификатор кодека : A_AC3
Продолжительность : 2 ч. 7 м.
Вид битрейта : Постоянный
Битрейт : 448 Кбит/сек
Каналы : 6 каналов
Расположение каналов : Front: L C R, Side: L R, LFE
Частота : 48,0 КГц
Битовая глубина : 16 бит
Метод сжатия : С потерями
Размер потока : 409 Мбайт (1%)
Заголовок : |MVO, Киномания|
Язык : Russian
Default : Нет
Forced : Нет
Аудио #3
Идентификатор : 4
Формат : DTS
Формат/Информация : Digital Theater Systems
Профиль формата : MA / Core
Режим : 16
Параметр Endianness формата : Big
Идентификатор кодека : A_DTS
Продолжительность : 2 ч. 7 м.
Вид битрейта : Переменный
Битрейт : Неизвестно / 1509 Кбит/сек
Каналы : 6 каналов
Расположение каналов : Front: L C R, Side: L R, LFE
Частота : 48,0 КГц
Битовая глубина : 24 бит
Метод сжатия : Без потерь / Lossy
Заголовок : |Иващенко, Пётр Александрович_[Гланц]_ & Королева, Инна|
Язык : Russian
Default : Нет
Forced : Нет
Аудио #4
Идентификатор : 5
Формат : DTS
Формат/Информация : Digital Theater Systems
Профиль формата : MA / Core
Режим : 16
Параметр Endianness формата : Big
Идентификатор кодека : A_DTS
Продолжительность : 2 ч. 7 м.
Вид битрейта : Переменный
Битрейт : Неизвестно / 1509 Кбит/сек
Каналы : 6 каналов
Расположение каналов : Front: L C R, Side: L R, LFE
Частота : 48,0 КГц
Битовая глубина : 24 бит
Метод сжатия : Без потерь / Lossy
Заголовок : |Нурмухаметов, Данис Василович|
Язык : Russian
Default : Нет
Forced : Нет
Аудио #5
Идентификатор : 6
Формат : DTS
Формат/Информация : Digital Theater Systems
Профиль формата : MA / Core
Режим : 16
Параметр Endianness формата : Big
Идентификатор кодека : A_DTS
Продолжительность : 2 ч. 7 м.
Вид битрейта : Переменный
Битрейт : Неизвестно / 1509 Кбит/сек
Каналы : 6 каналов
Расположение каналов : Front: L C R, Side: L R, LFE
Частота : 48,0 КГц
Битовая глубина : 24 бит
Метод сжатия : Без потерь / Lossy
Заголовок : |Королев, Владимир|
Язык : Russian
Default : Нет
Forced : Нет
Аудио #6
Идентификатор : 7
Формат : DTS
Формат/Информация : Digital Theater Systems
Профиль формата : MA / Core
Режим : 16
Параметр Endianness формата : Big
Идентификатор кодека : A_DTS
Продолжительность : 2 ч. 7 м.
Вид битрейта : Переменный
Битрейт : Неизвестно / 1509 Кбит/сек
Каналы : 6 каналов
Расположение каналов : Front: L C R, Side: L R, LFE
Частота : 48,0 КГц
Битовая глубина : 24 бит
Метод сжатия : Без потерь / Lossy
Заголовок : |Немахов, Юрий Геннадьевич|
Язык : Russian
Default : Нет
Forced : Нет
Аудио #7
Идентификатор : 8
Формат : DTS
Формат/Информация : Digital Theater Systems
Профиль формата : MA / Core
Режим : 16
Параметр Endianness формата : Big
Идентификатор кодека : A_DTS
Продолжительность : 2 ч. 7 м.
Вид битрейта : Переменный
Битрейт : Неизвестно / 1509 Кбит/сек
Каналы : 6 каналов
Расположение каналов : Front: L C R, Side: L R, LFE
Частота : 48,0 КГц
Битовая глубина : 24 бит
Метод сжатия : Без потерь / Lossy
Заголовок : |Дольский, Андрей Игоревич|
Язык : Russian
Default : Нет
Forced : Нет
Аудио #8
Идентификатор : 9
Формат : DTS
Формат/Информация : Digital Theater Systems
Профиль формата : MA / Core
Режим : 16
Параметр Endianness формата : Big
Идентификатор кодека : A_DTS
Продолжительность : 2 ч. 7 м.
Вид битрейта : Переменный
Битрейт : Неизвестно / 1509 Кбит/сек
Каналы : 6 каналов
Расположение каналов : Front: L C R, Side: L R, LFE
Частота : 48,0 КГц
Битовая глубина : 24 бит
Метод сжатия : Без потерь / Lossy
Заголовок : |original|
Язык : English
Default : Нет
Forced : Нет
Аудио #9
Идентификатор : 10
Формат : AC-3
Формат/Информация : Audio Coding 3
Профиль формата : Dolby Digital
Расширение режима : CM (complete main)
Параметр Endianness формата : Big
Идентификатор кодека : A_AC3
Продолжительность : 2 ч. 7 м.
Вид битрейта : Постоянный
Битрейт : 224 Кбит/сек
Каналы : 2 канала
Расположение каналов : Front: L R
Частота : 48,0 КГц
Битовая глубина : 16 бит
Метод сжатия : С потерями
Размер потока : 205 Мбайт (0%)
Заголовок : |commentary by director Matthew Vaughn & writer Jane Goldman|
Язык : English
Default : Нет
Forced : Нет
Текст #1
Идентификатор : 11
Формат : UTF-8
Идентификатор кодека : S_TEXT/UTF8
Идентификатор кодека/Информация : UTF-8 Plain Text
Заголовок : forced
Язык : Russian
Default : Да
Forced : Нет
Текст #2
Идентификатор : 12
Формат : UTF-8
Идентификатор кодека : S_TEXT/UTF8
Идентификатор кодека/Информация : UTF-8 Plain Text
Заголовок : full_Киномания
Язык : Russian
Default : Нет
Forced : Нет
Текст #3
Идентификатор : 13
Формат : UTF-8
Идентификатор кодека : S_TEXT/UTF8
Идентификатор кодека/Информация : UTF-8 Plain Text
Заголовок : Нурмухаметов, Данис Василович
Язык : Russian
Default : Нет
Forced : Нет
Текст #4
Идентификатор : 14
Формат : UTF-8
Идентификатор кодека : S_TEXT/UTF8
Идентификатор кодека/Информация : UTF-8 Plain Text
Заголовок : full
Язык : English
Default : Нет
Forced : Нет
Текст #5
Идентификатор : 15
Формат : UTF-8
Идентификатор кодека : S_TEXT/UTF8
Идентификатор кодека/Информация : UTF-8 Plain Text
Заголовок : SDH_full
Язык : English
Default : Нет
Forced : Нет
Меню
00:00:00.000 : :Chapter 1
00:07:29.157 : :Chapter 2
00:15:59.917 : :Chapter 3
00:23:14.726 : :Chapter 4
00:30:02.759 : :Chapter 5
00:38:16.460 : :Chapter 6
00:44:41.512 : :Chapter 7
00:51:01.933 : :Chapter 8
00:56:46.111 : :Chapter 9
01:04:10.847 : :Chapter 10
01:11:55.269 : :Chapter 11
01:18:28.078 : :Chapter 12
01:25:06.476 : :Chapter 13
01:33:36.193 : :Chapter 14
01:42:08.372 : :Chapter 15
01:49:02.577 : :Chapter 16
01:55:44.729 : :Chapter 17
02:00:49.450 : :Chapter 18
Скриншоты Цитата:
Огромная благодарность выражается Нурмухаметову, Данису Василовичу за любезно предоставленный чистый голос, за работу над сабами и за предоставленный постер к раздаче.
Цитата:
за выкуп перевода Немахова, Юрия Геннадьевича у двд100 спасибо пользователям форума hdtracker: Jiraya87, ultrajeka, _MyxAmoP_ , Tagansky, WUSA, budulaj965, ZeRoNe, Luka69, Отон, Volshebnik, Loki.
Цитата:
за перевод Дольского, Андрея Игоревича огромное спасибо пользователям форума hdtracker: Jiraya87, ultrajeka, WUSA, _MyxAmoP_, Tagansky, budulaj965, ZeRoNe, imp, kolibri2, hulahup, KpucTo161, Отон,
TOMAN, Comandante.
Скачать

Скачать торрент!

Как скачивать? · Что такое торрент? · Рейтинг и ограничения

Сайт не распространяет и не хранит электронные версии произведений, а лишь предоставляет доступ к создаваемому пользователями каталогу ссылок на торрент-файлы, которые содержат только списки хеш-сумм

[Профиль] [ЛС]
Показать сообщения:    
Ответить на тему

Текущее время: Сегодня 13:36

Часовой пояс: GMT + 4



Вы не можете начинать темы
Вы не можете отвечать на сообщения
Вы не можете редактировать свои сообщения
Вы не можете удалять свои сообщения
Вы не можете голосовать в опросах
Вы не можете прикреплять файлы к сообщениям
Вы не можете скачивать файлы