Тур де Шанс / La grande boucle (Лоран Тюэль / Laurent Tuel) [2013, Франция, комедия, спорт, HDTV 1080i] MVO

Ответить на тему
 
Автор Сообщение

user ®

Стаж: 7 лет 7 месяцев

Сообщений: 20008

Пост Пост: #1 от 13-Авг-2015 21:24

[Цитировать]

Тур де Шанс / La grande boucle
Страна: Франция
Жанр: комедия, спорт
Год выпуска: 2013
Продолжительность: 01:33:21
Перевод: Профессиональный (многоголосый закадровый)
Cубтитры: нет
Режиссер: Лоран Тюэль / Laurent Tuel
В ролях: Кловис Корнийяк, Були Ланнерс, Эри Абиттан, Бруно Лоше, Элоди Буше, Андре Маркон, Rose Caprais, Анник Кристиэнс, Paul Granier, Дуду Маста
Описание: От Франсуа уходит жена, считая его трусом и неудачником. Практически по той же причине босс его увольняет. Будучи большим фанатом Тур де Франс, Франсуа решает исполнить детскую мечту и отправляется по маршруту знаменитой велогонки за день до официального начала соревнований. Вдохновленные его вызовом брошенным официальному спорту, вскоре к нему присоединяются и другие любители. Теперь Франсуа готов соперничать в популярности с самим Тони Агнело, своим кумиром и фаворитом гонки.
Сэмпл: http://sendfile.su/1145267

Тип релиза: HDTV 1080i
Контейнер: TS
Видео: AVC/H.264, PAL, 1920x1080 (16:9), 8259 Кбит/сек, 25.000 fps
Аудио: русский, MP2, 2ch, 48,0 КГц, 192 Кбит/сек
MediaInfo
Общее
Идентификатор : 1 (0x1)
Полное имя : F:\Новая папка (3)\Новая папка\Тур де Шанс.ts
Формат : MPEG-TS
Размер файла : 5,80 Гбайт
Продолжительность : 1 ч. 33 м.
Режим общего битрейта : Переменный
Общий поток : 8892 Кбит/сек
Максимальный общий битрейт : 35,5 Мбит/сек
Видео
Идентификатор : 4113 (0x1011)
Идентификатор меню : 1 (0x1)
Формат : AVC
Формат/Информация : Advanced Video Codec
Профиль формата : Main@L4.0
Параметр CABAC формата : Да
Параметр ReFrames формата : 3 кадра
Идентификатор кодека : 27
Продолжительность : 1 ч. 33 м.
Вид битрейта : Переменный
Битрейт : 8259 Кбит/сек
Максимальный битрейт : 40,0 Мбит/сек
Ширина : 1920 пикселей
Высота : 1080 пикселей
Соотношение сторон : 16:9
Частота кадров : 25,000 кадров/сек
Стандарт вещания : Component
Цветовое пространство : YUV
Субдискретизация насыщенности : 4:2:0
Битовая глубина : 8 бит
Тип развёртки : Чересстрочная
Порядок развёртки : Верхнее поле первое
Бит/(Пиксели*Кадры) : 0.159
Размер потока : 5,39 Гбайт (93%)
colour_range : Limited
Аудио
Идентификатор : 4352 (0x1100)
Идентификатор меню : 1 (0x1)
Формат : MPEG Audio
Версия формата : Version 1
Профиль формата : Layer 2
Идентификатор кодека : 4
Продолжительность : 1 ч. 33 м.
Вид битрейта : Постоянный
Битрейт : 192 Кбит/сек
Каналы : 2 канала
Частота : 48,0 КГц
Метод сжатия : С потерями
Размер потока : 128 Мбайт (2%)
Язык : Russian
Скриншот с названием фильма Скриншоты
Скачать

Скачать торрент!

Как скачивать? · Что такое торрент? · Рейтинг и ограничения

Сайт не распространяет и не хранит электронные версии произведений, а лишь предоставляет доступ к создаваемому пользователями каталогу ссылок на торрент-файлы, которые содержат только списки хеш-сумм

[Профиль] [ЛС]
Показать сообщения:    
Ответить на тему

Текущее время: Сегодня 12:09

Часовой пояс: GMT + 4



Вы не можете начинать темы
Вы не можете отвечать на сообщения
Вы не можете редактировать свои сообщения
Вы не можете удалять свои сообщения
Вы не можете голосовать в опросах
Вы не можете прикреплять файлы к сообщениям
Вы не можете скачивать файлы