Авторитет / Сок / Закваска / Juice (Эрнест Р. Дикерсон / Ernest R. Dickerson) [1992, США, криминал, драма, триллер, WEB-DL 1080p] DVO (НТВ+) + VO + Original Eng

Ответить на тему
 
Автор Сообщение

user ®

Стаж: 7 лет 7 месяцев

Сообщений: 20008

Пост Пост: #1 от 13-Авг-2015 21:24

[Цитировать]

Авторитет / Сок / Закваска / Juice
Страна: США
Жанр: Криминал, драма, триллер
Год выпуска: 1992
Продолжительность: 01:34:39
Перевод: Профессиональный (двухголосый закадровый) НТВ+
Перевод 2: Одноголосый (закадровый)
Cубтитры: нет
Оригинальная аудиодорожка: английский
Режиссер: Ernest R. Dickerson / Эрнест Дикерсон
В ролях: Тупак Шакур, Омар Эппс, Куин Латифа, Сэмюэл Л. Джексон, Халил Кейн, Жермен Х. Хопкинс
Описание: Фильм рассказывает о тяжелой жизни черных людей в Гарлеме. Четверо подростков ведут преступную жизнь и все казалось бы «хорошо», но их жизнь меняется после неудачного ограбления магазина.
Сэмпл: http://multi-up.com/1062292
Качество видео: WEB-DL 1080p
Формат видео: MKV
Видео: MPEG4/AVC, 1912x1072, 16:9, 23,976 кадра/сек, 5250 Кбит/сек
Аудио: AC-3, 48,0 КГц, 384 Кбит/сек, 2 канала
Аудио 2: AC-3, 48,0 КГц, 384 Кбит/сек, 2 канала
Аудио 3: AC-3, 48,0 КГц, 384 Кбит/сек, 6 каналов
MediaInfo
Общее
Уникальный идентификатор : 203100403350531125866984011395008705481 (0x98CBB7009B0B54BFB2DF6C054DD633C9)
Полное имя : G:\Daniel\Juice.1992.1080p.WEB-DL.DD5.1.H264-LEGi0N.2xRus.Eng\Juice.1992.1080p.WEB-DL.DD5.1.H264-LEGi0N.2xRus.Eng.mkv
Формат : Matroska
Версия формата : Version 4 / Version 2
Размер файла : 4,32 Гбайт
Продолжительность : 1 ч. 34 м.
Общий поток : 6532 Кбит/сек
Название фильма : Juice.1992.1080p.WEB-DL.DD5.1.H264-LEGi0N
Дата кодирования : UTC 2015-08-12 14:42:42
Программа кодирования : mkvmerge v8.2.0 ('World of Adventure') 64bit
Библиотека кодирования : libebml v1.3.1 + libmatroska v1.4.2
DURATION : 01:34:44.160000000
NUMBER_OF_FRAMES : 177630
NUMBER_OF_BYTES : 272839680
_STATISTICS_WRITING_APP : mkvmerge v8.2.0 ('World of Adventure') 64bit
_STATISTICS_WRITING_DATE_UTC : 2015-08-12 14:42:42
_STATISTICS_TAGS : BPS DURATION NUMBER_OF_FRAMES NUMBER_OF_BYTES
Видео
Идентификатор : 1
Формат : AVC
Формат/Информация : Advanced Video Codec
Профиль формата : High@L4
Параметр CABAC формата : Да
Параметр ReFrames формата : 4 кадра
Идентификатор кодека : V_MPEG4/ISO/AVC
Продолжительность : 1 ч. 34 м.
Битрейт : 5250 Кбит/сек
Ширина : 1912 пикселей
Высота : 1072 пикселя
Соотношение сторон : 16:9
Режим частоты кадров : Постоянный
Частота кадров : 23,976 кадра/сек
Цветовое пространство : YUV
Субдискретизация насыщенности : 4:2:0
Битовая глубина : 8 бит
Тип развёртки : Прогрессивная
Бит/(Пиксели*Кадры) : 0.107
Размер потока : 3,47 Гбайт (80%)
Заголовок : Juice.1992.1080p.WEB-DL.DD5.1.H264-LEGi0N
Язык : English
Default : Да
Forced : Нет
Цветовой диапазон : Limited
Основные цвета : BT.709
Характеристики трансфера : BT.709
Коэффициенты матрицы : BT.709
Аудио #1
Идентификатор : 2
Формат : AC-3
Формат/Информация : Audio Coding 3
Расширение режима : CM (complete main)
Параметр Endianness формата : Big
Идентификатор кодека : A_AC3
Продолжительность : 1 ч. 34 м.
Вид битрейта : Постоянный
Битрейт : 384 Кбит/сек
Каналы : 2 канала
Расположение каналов : Front: L R
Частота : 48,0 КГц
Метод сжатия : С потерями
Размер потока : 260 Мбайт (6%)
Заголовок : Профессиональный (двухголосый закадровый) (НТВ+)
Язык : Russian
Default : Нет
Forced : Нет
Аудио #2
Идентификатор : 3
Формат : AC-3
Формат/Информация : Audio Coding 3
Расширение режима : CM (complete main)
Параметр Endianness формата : Big
Идентификатор кодека : A_AC3
Продолжительность : 1 ч. 34 м.
Вид битрейта : Постоянный
Битрейт : 384 Кбит/сек
Каналы : 2 канала
Расположение каналов : Front: L R
Частота : 48,0 КГц
Метод сжатия : С потерями
Размер потока : 260 Мбайт (6%)
Заголовок : Любительский (одноголосый)
Язык : Russian
Default : Нет
Forced : Нет
Аудио #3
Идентификатор : 4
Формат : AC-3
Формат/Информация : Audio Coding 3
Расширение режима : CM (complete main)
Параметр Endianness формата : Big
Идентификатор кодека : A_AC3
Продолжительность : 1 ч. 34 м.
Вид битрейта : Постоянный
Битрейт : 384 Кбит/сек
Каналы : 6 каналов
Расположение каналов : Front: L C R, Side: L R, LFE
Частота : 48,0 КГц
Метод сжатия : С потерями
Размер потока : 260 Мбайт (6%)
Заголовок : Juice.1992.1080p.WEB-DL.DD5.1.H264-LEGi0N
Язык : English
Default : Да
Forced : Нет
Меню
00:00:00.000 : en:Main Titles
00:02:39.000 : en:Wrecking Crew
00:20:43.000 : en:Blizzard
00:29:44.000 : en:Yolanda
00:33:41.000 : en:Gee Q
00:41:08.000 : en:Mixxmaster Massacre
00:46:46.000 : en:Old Man Quiles
00:49:22.000 : en:"If I go down, you go down."
00:57:53.000 : en:Gone Crazy
01:13:08.000 : en:The Frame
01:21:51.000 : en:Juice
Скриншоты
Скачать

Скачать торрент!

Как скачивать? · Что такое торрент? · Рейтинг и ограничения

Сайт не распространяет и не хранит электронные версии произведений, а лишь предоставляет доступ к создаваемому пользователями каталогу ссылок на торрент-файлы, которые содержат только списки хеш-сумм

[Профиль] [ЛС]
Показать сообщения:    
Ответить на тему

Текущее время: Сегодня 00:20

Часовой пояс: GMT + 4



Вы не можете начинать темы
Вы не можете отвечать на сообщения
Вы не можете редактировать свои сообщения
Вы не можете удалять свои сообщения
Вы не можете голосовать в опросах
Вы не можете прикреплять файлы к сообщениям
Вы не можете скачивать файлы