Приговор / Мальчишка Уинслоу / Мальчик Уинслоу / The Winslow Boy (Дэвид Мэмет / David Mamet) [1999, Великобритания, США, драма, WEB-DL 720p] MVO + Sub Rus, Eng + Original Eng

Ответить на тему
 
Автор Сообщение

user ®

Стаж: 7 лет 7 месяцев

Сообщений: 20008

Пост Пост: #1 от 13-Авг-2015 21:24

[Цитировать]

Приговор / Мальчишка Уинслоу / Мальчик Уинслоу / The Winslow Boy
Страна: Великобритания, США
Студия: Winslow Partners Ltd.
Жанр: драма
Год выпуска: 1999
Продолжительность: 01:44:24
Перевод: Профессиональный (многоголосый закадровый)
Cубтитры: русские, английские
Оригинальная аудиодорожка: английский
Режиссер: Дэвид Мэмет / David Mamet
В ролях: Мэттью Пиджон, Ребекка Пиджон, Джемма Джонс, Найджел Хоторн, Лана Билзериан, Сара Флинд, Аден Джиллетт, Гай Эдвардс, Колин Стинтон, Ив Блэнд
Описание: Закон — спасительная цепь, ограждающая общество от преступников. Но иногда он может стать кандалами для невиновного. Четырнадцатилетний сын влиятельного австрийского банкира Артура Уинслоу исключен из школы за кражу пяти шиллингов. Его отец, уверенный в невиновности мальчика, бросает вызов произволу закона и всей системы правосудия.
После того, как он нанял самого известного адвоката Англии, дело о пяти шиллингах стало достоянием общественности и дошло до Палаты Лордов. Но для того, чтобы справедливость восторжествовала, любящему отцу и человеку чести Артуру Уинслоу предстоит сорвать повязку безразличия с глаз Фемиды, слепой богини правосудия…

Доп. информация: За многоголоску спасибо Robi205B, ta_nusha, SolarOlya. За субтитры спасибо (РОССИ-555)

Sample
Тип релиза: WEB-DL 720p
Контейнер: MKV
Видео: MPEG4 AVC Video, H264, 16:9, 1278x720, 23.976 fps, 3997 kbps
Аудио: Russian (AC3, 2 ch, 192 kbps, 16 bits, 48.0 KHz) - MVO
Аудио 2: English (AC3, 2 ch, 192 kbps, 16 bits, 48.0 KHz) - оригинал
Формат субтитров: softsub (SRT)

MediaInfo
General
Unique ID : 212769518774671398744285488609805010183 (0xA011EB32F1C59C26940FDB654D390507)
Complete name : K:\The Winslow Boy 1999 WEB-DL 720p.mkv
Format : Matroska
Format version : Version 4 / Version 2
File size : 3.26 GiB
Duration : 1h 44mn
Overall bit rate : 4 470 Kbps
Encoded date : UTC 2015-08-12 18:20:08
Writing application : mkvmerge v6.1.0 ('Old Devil') built on Mar 2 2013 14:32:37
Writing library : libebml v1.3.0 + libmatroska v1.4.0
Video
ID : 1
Format : AVC
Format/Info : Advanced Video Codec
Format profile : High@L3.1
Format settings, CABAC : No
Format settings, ReFrames : 2 frames
Codec ID : V_MPEG4/ISO/AVC
Duration : 1h 44mn
Bit rate : 3 997 Kbps
Width : 1 278 pixels
Height : 720 pixels
Display aspect ratio : 16:9
Frame rate mode : Constant
Frame rate : 23.976 fps
Color space : YUV
Chroma subsampling : 4:2:0
Bit depth : 8 bits
Scan type : Progressive
Bits/(Pixel*Frame) : 0.181
Stream size : 2.91 GiB (89%)
Language : English
Default : Yes
Forced : No
Color primaries : BT.709
Transfer characteristics : BT.709
Matrix coefficients : BT.709
Audio #1
ID : 2
Format : AC-3
Format/Info : Audio Coding 3
Mode extension : CM (complete main)
Format settings, Endianness : Big
Codec ID : A_AC3
Duration : 1h 44mn
Bit rate mode : Constant
Bit rate : 192 Kbps
Channel count : 2 channels
Channel positions : Front: L R
Sampling rate : 48.0 KHz
Bit depth : 16 bits
Compression mode : Lossy
Stream size : 143 MiB (4%)
Language : Russian
Default : Yes
Forced : Yes
Audio #2
ID : 3
Format : AC-3
Format/Info : Audio Coding 3
Mode extension : CM (complete main)
Format settings, Endianness : Big
Codec ID : A_AC3
Duration : 1h 44mn
Bit rate mode : Constant
Bit rate : 192 Kbps
Channel count : 2 channels
Channel positions : Front: L R
Sampling rate : 48.0 KHz
Bit depth : 16 bits
Compression mode : Lossy
Stream size : 143 MiB (4%)
Language : English
Default : No
Forced : No
Text #1
ID : 4
Format : UTF-8
Codec ID : S_TEXT/UTF8
Codec ID/Info : UTF-8 Plain Text
Language : Russian
Default : No
Forced : No
Text #2
ID : 5
Format : UTF-8
Codec ID : S_TEXT/UTF8
Codec ID/Info : UTF-8 Plain Text
Language : English
Default : No
Forced : No
Скриншоты
Скачать

Скачать торрент!

Как скачивать? · Что такое торрент? · Рейтинг и ограничения

Сайт не распространяет и не хранит электронные версии произведений, а лишь предоставляет доступ к создаваемому пользователями каталогу ссылок на торрент-файлы, которые содержат только списки хеш-сумм

[Профиль] [ЛС]
Показать сообщения:    
Ответить на тему

Текущее время: Сегодня 02:17

Часовой пояс: GMT + 4



Вы не можете начинать темы
Вы не можете отвечать на сообщения
Вы не можете редактировать свои сообщения
Вы не можете удалять свои сообщения
Вы не можете голосовать в опросах
Вы не можете прикреплять файлы к сообщениям
Вы не можете скачивать файлы