Муха 2 / The Fly II (Крис Уолас / Chris Walas) [1989, США, ужасы, фантастика, HDTV 1080i] MVO (1 канал)

Ответить на тему
 
Автор Сообщение

user ®

Стаж: 7 лет 7 месяцев

Сообщений: 20008

Пост Пост: #1 от 13-Авг-2015 21:24

[Цитировать]

Муха 2 / The Fly II
Страна: США
Жанр: ужасы, фантастика
Год выпуска: 1989
Продолжительность: 01:37:30
Перевод: Профессиональный (многоголосый закадровый) 1 канал
Cубтитры: нет
Оригинальная аудиодорожка: нет
Режиссер: Крис Уолас / Chris Walas
В ролях: Эрик Штолц /Eric Stoltz/, Дэфни Зунига /Daphne Zuniga/, Ли Ричардсон /Lee Richardson/, Джон Гец /John Getz/, Фрэнк Тернер /Frank Turner/, Энн Мари Ли /Anne Marie Lee/
Описание: С виду Мартин выглядит как совершенно нормальный, здоровый молодой человек. Однако, под обыкновенным внешним обликом скрывается самый необыкновенный из когда — либо живших на земле людей.
Во — первых, он гений. Во — вторых, он взрослый мужчина, несмотря на то, что ему всего пять лет. Но что еще более интересно, Мартин — сын человека — мухи, ученого Реда Брандела, чей генетический код был изменен в ходе неудавшегося эксперимента.
Пройдет какое — то время, и эта генная мутация в организме Мартина даст о себе знать и выйдет из состояния анабиоза. Мартину предстоит пережить самую ужасающую трансформацию, которая когда — либо происходила с организмом человека.
Доп. информация: Наполнение кадра немного больше, чем на DVD и картинка почетче http://screenshotcomparison.com/comparison/138367
Сэмпл: http://multi-up.com/1062324
Тип релиза: HDTV 1080i
Контейнер: TS
Видео: AVC, 1920x1080 (16:9), 25.000 fps, 12.3 Mbps (0.237 bit/pixel)
Аудио: MP2, 48.0 KHz, 2 ch, 192 Kbps, CBR (Russian)
MediaInfo
Общее
Идентификатор : 3 (0x3)
Полное имя : K:\Муха 2.ts
Формат : MPEG-TS
Размер файла : 8,94 Гбайт
Продолжительность : 1 ч. 37 м.
Режим общего битрейта : Переменный
Общий поток : 13,1 Мбит/сек
Видео
Идентификатор : 2141 (0x85D)
Идентификатор меню : 21004 (0x520C)
Формат : AVC
Формат/Информация : Advanced Video Codec
Профиль формата : Main@L4
Параметр CABAC формата : Да
Параметр ReFrames формата : 3 кадра
Идентификатор кодека : 27
Продолжительность : 1 ч. 37 м.
Битрейт : 12,3 Мбит/сек
Ширина : 1920 пикселей
Высота : 1080 пикселей
Соотношение сторон : 16:9
Частота кадров : 25,000 кадров/сек
Стандарт вещания : Component
Цветовое пространство : YUV
Субдискретизация насыщенности : 4:2:0
Битовая глубина : 8 бит
Тип развёртки : Чересстрочная
Порядок развёртки : Верхнее поле первое
Бит/(Пиксели*Кадры) : 0.237
Размер потока : 8,37 Гбайт (94%)
Цветовой диапазон : Limited
Основные цвета : BT.709
Характеристики трансфера : BT.709
Коэффициенты матрицы : BT.709
Аудио
Идентификатор : 2142 (0x85E)
Идентификатор меню : 21004 (0x520C)
Формат : MPEG Audio
Версия формата : Version 1
Профиль формата : Layer 2
Идентификатор кодека : 4
Продолжительность : 1 ч. 37 м.
Вид битрейта : Постоянный
Битрейт : 192 Кбит/сек
Каналы : 2 канала
Частота : 48,0 КГц
Метод сжатия : С потерями
Размер потока : 134 Мбайт (1%)
Язык : Russian
Скриншоты
Скачать

Скачать торрент!

Как скачивать? · Что такое торрент? · Рейтинг и ограничения

Сайт не распространяет и не хранит электронные версии произведений, а лишь предоставляет доступ к создаваемому пользователями каталогу ссылок на торрент-файлы, которые содержат только списки хеш-сумм

[Профиль] [ЛС]
Показать сообщения:    
Ответить на тему

Текущее время: Сегодня 13:51

Часовой пояс: GMT + 4



Вы не можете начинать темы
Вы не можете отвечать на сообщения
Вы не можете редактировать свои сообщения
Вы не можете удалять свои сообщения
Вы не можете голосовать в опросах
Вы не можете прикреплять файлы к сообщениям
Вы не можете скачивать файлы