Остров сокровищ (Владимир Воробьев) [1982, приключения, DVDRip-AVC, AVC] (расширенная версия)

Ответить на тему
 
Автор Сообщение

user ®

Стаж: 7 лет 7 месяцев

Сообщений: 20008

Пост Пост: #1 от 13-Авг-2015 21:24

[Цитировать]

Остров сокровищ (3 серии)
Жанр: приключения
Год выпуска: 1982
Студия: Ленфильм
Продолжительность: 03:14:04 (1:04:33 + 1:06:21 + 1:03:10)
Режиссёр: Владимир Воробьев
В ролях: Федя Стуков, Олег Борисов, Виктор Костецкий, Владислав Стржельчик, Константин Григорьев, Леонид Марков, Георгий Тейх, Ольга Волкова, Валерий Золотухин, Николай Караченцов
Описание: По одноименному роману Роберта Льюиса Стивенсона. Однажды в руки отважного мальчика Джима, мечтающего об опасных приключениях, попадает старинная морская карта. Она открывает путь к сокровищам капитана Флинта, которые зарыты на острове, затерянном в океане… Пираты по главе с Джоном Сильвером пытаются помешать Джиму и его друзьям найти сокровища. Но смелость, благородство и верность долгу помогают героям справиться со всеми выпавшими на их долю испытаниями…
Сэмпл: https://yadi.sk/i/oxSCMGz5iRxER
[url=http://***/forum/viewtopic.php?t=4062580]DVD9[/url]

Качество видео: DVDRip-AVC
Формат видео: MKV
Видео: х264, 688х568 (734х568), 1,292:1, 25,000 кадров/сек, 2208 Кбит/сек, 0.226
Аудио: АС-3 Dolby Digital, 48,0 КГц, 192 Кбит/сек, стерео
x264 log
x264 [info]: frame I:530 Avg QP:16.93 size: 50401
x264 [info]: frame P:21692 Avg QP:18.24 size: 23518
x264 [info]: frame B:74608 Avg QP:20.38 size: 7437
MediaInfo
Полное имя : K:\Остров сокровищ (1982)\1-я серия.mkv
Формат : Matroska
Версия формата : Version 2
Размер файла : 1,10 Гбайт
Продолжительность : 1 ч. 4 м.
Общий поток : 2449 Кбит/сек
Дата кодирования : UTC 2015-08-10 05:03:00
Программа кодирования : mkvmerge v7.9.0 ('Birds') 32bit
Библиотека кодирования : libebml v1.3.1 + libmatroska v1.4.2
Видео
Идентификатор : 1
Формат : AVC
Формат/Информация : Advanced Video Codec
Профиль формата : High@L3.1
Параметр CABAC формата : Да
Параметр ReFrames формата : 10 кадров
Идентификатор кодека : V_MPEG4/ISO/AVC
Продолжительность : 1 ч. 4 м.
Битрейт : 2208 Кбит/сек
Ширина : 688 пикселей
Высота : 568 пикселей
Соотношение сторон : 1,292
Режим частоты кадров : Постоянный
Частота кадров : 25,000 кадров/сек
Цветовое пространство : YUV
Субдискретизация насыщенности : 4:2:0
Битовая глубина : 8 бит
Тип развёртки : Прогрессивная
Бит/(Пиксели*Кадры) : 0.226
Размер потока : 1019 Мбайт (90%)
Библиотека кодирования : x264 core 130 r2273 b3065e6
Настройки программы : cabac=1 / ref=10 / deblock=1:-2:-2 / analyse=0x3:0x113 / me=umh / subme=10 / psy=1 / psy_rd=1.00:0.00 / mixed_ref=1 / me_range=24 / chroma_me=1 / trellis=2 / 8x8dct=1 / cqm=0 / deadzone=21,11 / fast_pskip=1 / chroma_qp_offset=-2 / threads=4 / lookahead_threads=1 / sliced_threads=0 / nr=0 / decimate=1 / interlaced=0 / bluray_compat=0 / constrained_intra=0 / bframes=8 / b_pyramid=2 / b_adapt=2 / b_bias=0 / direct=1 / weightb=1 / open_gop=0 / weightp=2 / keyint=250 / keyint_min=25 / scenecut=40 / intra_refresh=0 / rc=crf / mbtree=0 / crf=18.0 / qcomp=0.65 / qpmin=0 / qpmax=69 / qpstep=4 / ip_ratio=1.40 / pb_ratio=1.30 / aq=1:1.00
Default : Да
Forced : Нет
Цветовой диапазон : Limited
Коэффициенты матрицы : BT.601
Аудио
Идентификатор : 2
Формат : AC-3
Формат/Информация : Audio Coding 3
Расширение режима : CM (complete main)
Параметр Endianness формата : Big
Идентификатор кодека : A_AC3
Продолжительность : 1 ч. 4 м.
Вид битрейта : Постоянный
Битрейт : 192 Кбит/сек
Каналы : 2 канала
Расположение каналов : Front: L R
Частота : 48,0 КГц
Метод сжатия : С потерями
Размер потока : 88,7 Мбайт (8%)
Default : Да
Forced : Нет
Скриншот c названием фильма Скриншоты
Скачать

Скачать торрент!

Как скачивать? · Что такое торрент? · Рейтинг и ограничения

Сайт не распространяет и не хранит электронные версии произведений, а лишь предоставляет доступ к создаваемому пользователями каталогу ссылок на торрент-файлы, которые содержат только списки хеш-сумм

[Профиль] [ЛС]
Показать сообщения:    
Ответить на тему

Текущее время: Сегодня 22:39

Часовой пояс: GMT + 4



Вы не можете начинать темы
Вы не можете отвечать на сообщения
Вы не можете редактировать свои сообщения
Вы не можете удалять свои сообщения
Вы не можете голосовать в опросах
Вы не можете прикреплять файлы к сообщениям
Вы не можете скачивать файлы