Фотосессия / Picture Day (Кэйт Майлс Мелвилл / Kate Miles Melville) [2012, Канада, драма, комедия, WEB-DL 720p] DVO (студия Elrom) + Sub Eng + Original Eng

Ответить на тему
 
Автор Сообщение

user ®

Стаж: 7 лет 7 месяцев

Сообщений: 20008

Пост Пост: #1 от 13-Авг-2015 18:18

[Цитировать]

Фотосессия / Picture Day
Страна: Канада
Студия: Foundry Films, Snitch Pictures
Жанр: драма, комедия
Год выпуска: 2012
Продолжительность: 01:33:02
Перевод: Профессиональный (двухголосый закадровый) студия Elrom
Cубтитры: английские
Оригинальная аудиодорожка: английский
Режиссер: Кэйт Майлс Мелвилл / Kate Miles Melville
В ролях: Татьяна Маслани /Tatiana Maslany/, Спенсер Ван Вик /Spencer Van Wyck/, Стивен МакКарти /Steven McCarthy/, Сьюзэн Койн /Susan Coyne/, Фиона Хайет /Fiona Highet/, Марк ДеБонис /Mark DeBonis/, Катрин Фитч /Catherine Fitch/, Моника Доттер /Monica Dottor/, Джоэнн Боланд /Joanne Boland/, Мелисса Джейн Шоу /Melissa Jane Shaw/
Описание: Девушка остаетсяся на второй год в школе и оказывается между двумя мирами - миром детей и миром взрослых и между двумя очень разными поклонниками...
II Сэмпл II IMDB II
Доп. информация:
За перевод студии Elrom спасибо 25k
Тип релиза: WEB-DL 720p (Picture.Day.2012.720p.WEB-DL.DD5.1.H264-FGT)
Контейнер: MKV
Видео: AVC / 1280x718 / 16:9 / 23.976fps / Bit rate 4022Kbps
Аудио 1: AC3 / 48.0KHz / 2ch. / 192kbps / rus / dvo / студия Elrom
Аудио 2: AC3 / 48.0KHz / 6ch. / 384kbps / eng
Формат субтитров: softsub (SRT)
MediaInfo
Уникальный идентификатор : 189859322855523213015837363203424807190 (0x8ED59354ADE6BD219C245273ED1A6916)
Полное имя : G:\!!!_torrent\Picture.Day.2012.WEB-DL.720p_by_vedigo.mkv
Формат : Matroska
Версия формата : Version 4 / Version 2
Размер файла : 3,05 Гбайт
Продолжительность : 1 ч. 33 м.
Общий поток : 4689 Кбит/сек
Название фильма : Picture.Day.2012.WEB-DL.720p_by_vedigo
Дата кодирования : UTC 2015-08-11 07:40:25
Программа кодирования : mkvmerge v8.2.0 ('World of Adventure') 64bit
Библиотека кодирования : libebml v1.3.1 + libmatroska v1.4.2
DURATION : 01:32:17.797000000
NUMBER_OF_FRAMES : 1938
NUMBER_OF_BYTES : 48593
_STATISTICS_WRITING_APP : mkvmerge v8.2.0 ('World of Adventure') 64bit
_STATISTICS_WRITING_DATE_UTC : 2015-08-11 07:40:25
_STATISTICS_TAGS : BPS DURATION NUMBER_OF_FRAMES NUMBER_OF_BYTES
Видео
Идентификатор : 1
Формат : AVC
Формат/Информация : Advanced Video Codec
Профиль формата : High@L3.1
Параметр CABAC формата : Нет
Параметр ReFrames формата : 2 кадра
Идентификатор кодека : V_MPEG4/ISO/AVC
Продолжительность : 1 ч. 33 м.
Битрейт : 4020 Кбит/сек
Ширина : 1280 пикселей
Высота : 718 пикселей
Соотношение сторон : 16:9
Режим частоты кадров : Постоянный
Частота кадров : 23,976 кадра/сек
Цветовое пространство : YUV
Субдискретизация насыщенности : 4:2:0
Битовая глубина : 8 бит
Тип развёртки : Прогрессивная
Бит/(Пиксели*Кадры) : 0.182
Размер потока : 2,61 Гбайт (86%)
Заголовок : Picture.Day.2012.WEB-DL.720p_by_vedigo
Default : Да
Forced : Нет
Цветовой диапазон : Limited
Основные цвета : BT.709
Характеристики трансфера : BT.709
Коэффициенты матрицы : BT.709
Аудио #1
Идентификатор : 2
Формат : AC-3
Формат/Информация : Audio Coding 3
Расширение режима : CM (complete main)
Параметр Endianness формата : Big
Идентификатор кодека : A_AC3
Продолжительность : 1 ч. 33 м.
Вид битрейта : Постоянный
Битрейт : 192 Кбит/сек
Каналы : 2 канала
Расположение каналов : Front: L R
Частота : 48,0 КГц
Метод сжатия : С потерями
Размер потока : 128 Мбайт (4%)
Заголовок : DVO @ Elrom
Язык : Russian
Default : Да
Forced : Нет
Аудио #2
Идентификатор : 3
Формат : AC-3
Формат/Информация : Audio Coding 3
Расширение режима : CM (complete main)
Параметр Endianness формата : Big
Идентификатор кодека : A_AC3
Продолжительность : 1 ч. 33 м.
Вид битрейта : Постоянный
Битрейт : 384 Кбит/сек
Каналы : 6 каналов
Расположение каналов : Front: L C R, Side: L R, LFE
Частота : 48,0 КГц
Метод сжатия : С потерями
Размер потока : 256 Мбайт (8%)
Заголовок : original @ AC3, 6ch
Язык : English
Default : Нет
Forced : Нет
Текст
Идентификатор : 4
Формат : UTF-8
Идентификатор кодека : S_TEXT/UTF8
Идентификатор кодека/Информация : UTF-8 Plain Text
Заголовок : subtitle eng
Язык : English
Default : Нет
Forced : Нет
Меню
00:00:00.000 : en:Chapter1
00:08:05.000 : en:Chapter2
00:15:39.000 : en:Chapter3
00:24:34.000 : en:Chapter4
00:33:26.000 : en:Chapter5
00:42:40.000 : en:Chapter6
00:49:58.000 : en:Chapter7
00:56:17.000 : en:Chapter8
01:04:37.000 : en:Chapter9
01:13:38.000 : en:Chapter10
01:23:08.000 : en:Chapter11
01:30:12.000 : en:Chapter12
Скриншоты
Скачать

Скачать торрент!

Как скачивать? · Что такое торрент? · Рейтинг и ограничения

Сайт не распространяет и не хранит электронные версии произведений, а лишь предоставляет доступ к создаваемому пользователями каталогу ссылок на торрент-файлы, которые содержат только списки хеш-сумм

[Профиль] [ЛС]
Показать сообщения:    
Ответить на тему

Текущее время: Сегодня 07:58

Часовой пояс: GMT + 4



Вы не можете начинать темы
Вы не можете отвечать на сообщения
Вы не можете редактировать свои сообщения
Вы не можете удалять свои сообщения
Вы не можете голосовать в опросах
Вы не можете прикреплять файлы к сообщениям
Вы не можете скачивать файлы