Где ты? / Where Are You? / Wakaranai (Масахиро Кобаяси / Masahiro Kobayashi) [2009, Япония, драма, DVDRip] DVO + Sub Rus + original

Ответить на тему
 
Автор Сообщение

user ®

Стаж: 13 лет

Сообщений: 15071

Пост Пост: #1 от 13-Авг-2015 02:30

[Цитировать]

Где ты? / Where Are You? / Wakaranai
Страна: Япония
Жанр: драма
Год выпуска: 2009
Продолжительность: 01:44:01
Перевод: Любительский (двухголосый закадровый) - Алина Романова и Синхито
Cубтитры: русские (Синхито), русские (tanukk)
Оригинальная аудиодорожка: японский

Режиссер: Масахиро Кобаяси / Masahiro Kobayashi
В ролях: Юки Кобаяси, Токио Эмото, Макико Ватанабэ, Бэнгару, Тинацу Эгути, Масахиро Киёта, Масахиро Кобаяси, Санаэ Мията, Йосихиро Окамура, Юкиёси Одзава, Рёскэ Судзуки, Рюудзо Танака, Кадзуэ Цуногаэ, Мэгуми Йокояма.
Описание: Фильм рассказывает о шестнадцатилетнем парне по имени Рё Каваи. Он живет один. Его мать тяжело больна и находится в больнице, а отца он никогда не видел. Каждый его день - это борьба за выживание. Рё подрабатывает в местном супермаркете, но этих денег едва хватает, чтобы оплачивать счета. Ему приходится воровать еду… Это фильм о ребенке, у которого не было детства и о том, как тяжело быть одному, в какой бы стране не жил…
Фильм-участник конкурсной программы среди иностранных фильмов 62-го кинофестиваля в Локарно

Качество видео: [url=http://***/forum/viewtopic.php?t=4398256]DVDRip[/url]
Формат видео: AVI
Видео: 672x400 (1.68:1), 23.976 fps, XviD build 73 ~1611 kbps avg, 0.25 bit/pixel
Аудио: 48 kHz, AC3 Dolby Digital, 2/0 (L,R) ch, ~192 kbps - двухголосый
Аудио: 48 kHz, AC3 Dolby Digital, 2/0 (L,R) ch, ~192 kbps - оригинал


Сравнение
[url=http://***/forum/viewtopic.php?t=3534254]http://***/forum/viewtopic.php?t=3534254[/url]
http://screenshotcomparison.com/comparison/138263
[url=http://***/forum/viewtopic.php?t=3441674]http://***/forum/viewtopic.php?t=3441674[/url] - авторская раздача
http://screenshotcomparison.com/comparison/138264
MediaInfo
Общее
Полное имя : H:\Wakaranai.2009.dvdrip_[1.46]_[teko]\Wakaranai.2009.dvdrip_[1.46].avi
Формат : AVI
Формат/Информация : Audio Video Interleave
Размер файла : 1,46 Гбайт
Продолжительность : 1 ч. 44 м.
Общий поток : 2010 Кбит/сек
Программа кодирования : VirtualDubMod 1.5.10.3 | www.virtualdub-fr.org || (build 2550/release)
Библиотека кодирования : VirtualDubMod build 2550/release
Видео
Идентификатор : 0
Формат : MPEG-4 Visual
Профиль формата : Advanced Simple@L5
Параметр BVOP формата : 1
Параметр QPel формата : Нет
Параметр GMC формата : Без точки перехода
Параметр матрицы формата : Выборочная
Идентификатор кодека : XVID
Идентификатор кодека/Подсказка : XviD
Продолжительность : 1 ч. 44 м.
Битрейт : 1612 Кбит/сек
Ширина : 672 пикселя
Высота : 400 пикселей
Соотношение сторон : 1,680
Частота кадров : 23,976 кадра/сек
Цветовое пространство : YUV
Субдискретизация насыщенности : 4:2:0
Битовая глубина : 8 бит
Тип развёртки : Прогрессивная
Метод сжатия : С потерями
Бит/(Пиксели*Кадры) : 0.250
Размер потока : 1,17 Гбайт (80%)
Библиотека кодирования : XviD 73
Аудио #1
Идентификатор : 1
Формат : AC-3
Формат/Информация : Audio Coding 3
Расширение режима : CM (complete main)
Параметр Endianness формата : Big
Идентификатор кодека : 2000
Продолжительность : 1 ч. 44 м.
Вид битрейта : Постоянный
Битрейт : 192 Кбит/сек
Каналы : 2 канала
Расположение каналов : Front: L R
Частота : 48,0 КГц
Битовая глубина : 16 бит
Метод сжатия : С потерями
Размер потока : 143 Мбайт (10%)
Выравнивание : Разделение по промежуткам
Продолжительность промежутка : 42 мс. (1,00 видеокадр)
Время предзагрузки промежутка : 500 мс.
Аудио #2
Идентификатор : 2
Формат : AC-3
Формат/Информация : Audio Coding 3
Расширение режима : CM (complete main)
Параметр Endianness формата : Big
Идентификатор кодека : 2000
Продолжительность : 1 ч. 44 м.
Вид битрейта : Постоянный
Битрейт : 192 Кбит/сек
Каналы : 2 канала
Расположение каналов : Front: L R
Частота : 48,0 КГц
Битовая глубина : 16 бит
Метод сжатия : С потерями
Размер потока : 143 Мбайт (10%)
Выравнивание : Разделение по промежуткам
Продолжительность промежутка : 42 мс. (1,00 видеокадр)
Время предзагрузки промежутка : 500 мс.
Скриншоты Релиз группы:
[url=http://***/forum/viewtopic.php?t=1677970] [/url]
--
Скачать

Скачать торрент! Где ты? / Where Are You? / Wakaranai (Масахиро Кобаяси / Masahiro Kobayashi) [2009, Япония, драма, DVDRip] DVO + Sub Rus + original

Как скачивать? · Что такое торрент? · Рейтинг и ограничения

Сайт не распространяет и не хранит электронные версии произведений, а лишь предоставляет доступ к создаваемому пользователями каталогу ссылок на торрент-файлы, которые содержат только списки хеш-сумм

[Профиль] [ЛС]
Показать сообщения:    
Ответить на тему

Текущее время: Сегодня 17:14

Часовой пояс: GMT + 4



Вы не можете начинать темы
Вы не можете отвечать на сообщения
Вы не можете редактировать свои сообщения
Вы не можете удалять свои сообщения
Вы не можете голосовать в опросах
Вы не можете прикреплять файлы к сообщениям
Вы не можете скачивать файлы