Колония Де Монте / Demonte Colony (Р. Аджай Гнанамурти / R. Ajay Gnanamuthu) [2015, Индия, Мистика, HDRip] Sub Rus (Лисонька)

Ответить на тему
 
Автор Сообщение

user ®

Стаж: 12 лет

Сообщений: 15092

Пост Пост: #1 от 12-Авг-2015 23:24

[Цитировать]

Колония Де Монте / Demonte Colony
Страна: Индия
Жанр: Мистика
Год выпуска: 2015
Продолжительность: 01:50:39
Перевод: Субтитры Лисонька / РГ "Deewana"
Cубтитры: русские
Оригинальная аудио дорожка: Тамил
Режиссер: Р. Аджай Гнанамурти / R. Ajay Gnanamuthu
В ролях: Арульнитхи, Рамеш Тилак, Санатх, Абхишек Джозеф
Описание: Четыре смелых друга рискуют пойти в дом с привидениями Де Монте, в Ченнае и возвращаются невредимыми. Проблемы начинаются следующей ночью, когда они обнаруживают себя пойманными в ловушку в другом измерении в их комнате.
Сэмпл: http://sendfile.su/1144398
Качество видео: HDRip
Формат видео: MP4
Видео: MPEG-4 Visual, 1280x544, 25,167 кадров/сек, 1677 Кбит/сек
Аудио: AAC, 44,1 КГц, 120 Мбайт, 152 Кбит/сек
Формат субтитров: hardsub (неотключаемые)
MediaInfo
Общее
Полное имя: D:\Demonte Colony [2015] Tamil 720p HDRip AC3 x264 1.4GB ESubs(1).mp4
Формат: MPEG-4
Профиль формата: Base Media
Идентификатор кодека: isom
Размер файла: 1,42 Гбайт
Продолжительность: 1 ч. 50 м.
Режим общего битрейта: Переменный
Общий поток: 1833 Кбит/сек
Название фильма: Demonte Colony
Дата кодирования: UTC 2015-08-09 00:31:51
Дата пометки: UTC 2015-08-09 00:31:51
Программа кодирования: Lavf51.12.1
Видео
Идентификатор: 1
Формат : MPEG-4 Visual
Профиль формата : Simple@L1
Параметр BVOP формата : Нет
Параметр QPel формата : Нет
Параметр GMC формата : Без точки перехода
Параметр матрицы формата : Default (H.263)
Идентификатор кодека : 20
Продолжительность : 1 ч. 50 м.
Duration_LastFrame : -33 мс.
Битрейт : 1677 Кбит/сек
Ширина : 1280 пикселей
Высота : 544 пикселя
Соотношение сторон : 2,35:1
Режим частоты кадров : Постоянный
Частота кадров : 25,167 кадров/сек
Цветовое пространство : YUV
Субдискретизация насыщенности : 4:2:0
Битовая глубина : 8 бит
Тип развёртки : Прогрессивная
Метод сжатия : С потерями
Бит/(Пиксели*Кадры) : 0.096
Размер потока : 1,30 Гбайт (91%)
Библиотека кодирования : Lavc51.40.4
Дата кодирования : UTC 2015-08-09 00:31:51
Дата пометки : UTC 2015-08-09 00:31:51
Аудио
Идентификатор : 2
Формат : AAC
Формат/Информация : Advanced Audio Codec
Профиль формата : LC
Идентификатор кодека : 40
Продолжительность : 1 ч. 50 м.
Вид битрейта : Переменный
Битрейт : 152 Кбит/сек
Каналы : 2 канала
Расположение каналов : Front: L R
Частота : 44,1 КГц
Метод сжатия : С потерями
Размер потока : 120 Мбайт (8%)
Дата кодирования : UTC 2015-08-09 00:31:51
Дата пометки : UTC 2015-08-09 00:31:51
Скриншот c названием фильма Скриншоты
Скачать

Скачать торрент! Колония Де Монте / Demonte Colony (Р. Аджай Гнанамурти / R. Ajay Gnanamuthu) [2015, Индия, Мистика, HDRip] Sub Rus (Лисонька)

Как скачивать? · Что такое торрент? · Рейтинг и ограничения

Сайт не распространяет и не хранит электронные версии произведений, а лишь предоставляет доступ к создаваемому пользователями каталогу ссылок на торрент-файлы, которые содержат только списки хеш-сумм

[Профиль] [ЛС]
Показать сообщения:    
Ответить на тему

Текущее время: Сегодня 11:07

Часовой пояс: GMT + 4



Вы не можете начинать темы
Вы не можете отвечать на сообщения
Вы не можете редактировать свои сообщения
Вы не можете удалять свои сообщения
Вы не можете голосовать в опросах
Вы не можете прикреплять файлы к сообщениям
Вы не можете скачивать файлы