Васаби / Wasabi (Жерар Кравчик / Gérard Krawczyk) [2001, Франция, Япония, боевик, драма, комедия, криминал, BDRemux 1080p] Dub + 5x MVO + DVO + 2x AVO + 2x VO + Sub Rus, Eng + Original Fre

Ответить на тему
 
Автор Сообщение

user ®

Стаж: 7 лет 7 месяцев

Сообщений: 20008

Пост Пост: #1 от 12-Авг-2015 23:24

[Цитировать]

Васаби / Wasabi
Страна: Франция, Япония
Жанр: боевик, драма, комедия, криминал
Год выпуска: 2001
Продолжительность: 01:33:50
Перевод: Профессиональный (дублированный)
Перевод: Профессиональные (многоголосые закадровые) CP Digital, LDV, Домашнее видео, НТВ/СТС, Россия
Перевод: Профессиональный (двухголосый закадровый) Гланц и Королева
Перевод: Авторские (одноголосые закадровые) Володарский, Гранкин
Перевод: Одноголосые закадровые Векшин, Kuzen
Оригинальная аудиодорожка: французская
Режиссер: Жерар Кравчик / Gérard Krawczyk
В ролях: Жан Рено, Риоко Хиросуэ, Мишель Мюллер, Ёси Оида, Кароль Буке, Кристиан Синниже, Александр Брик, Жан-Марк Монтальто, Вероник Бальм, Фабио Дзенони
Описание: Юбер Фиорентини — французский полицейский, исполняя последнюю волю когда-то им любимой японской девушки, вынужден отправиться в далекую Японию, где ему приходится встретиться со старым другом и дочерью, о существовании которой он даже не подозревал.
А так же получить наследство в 200 млн. долларов, и познакомиться с японской якудзой, охотящейся за заманчивой суммой…

Сэмпл
Тип релиза: BDRemux 1080p
Контейнер: MKV
Исходник: Wasabi 2001 1080p GER Blu-ray AVC DTS-HD MA 5.1
Видео: 1920x1080 at 23.976 fps, MPEG-4 AVC, ~18997 kbps avg
Аудио: Russian: 48 kHz, AC3, 3/2 (L,C,R,l,r) + LFE ch, ~448.00 kbps avg |Дубляж, R5 Союз-Видео|
Аудио: Russian: 48 kHz, AC3, 3/2 (L,C,R,l,r) + LFE ch, ~448.00 kbps avg |Многоголосый закадровый, CP Digital|
Аудио: Russian: 48 kHz, AC3, 3/2 (L,C,R,l,r) + LFE ch, ~384.00 kbps avg |Многоголосый закадровый, LDV|
Аудио: Russian: 48 kHz, AC3, 3/2 (L,C,R,l,r) + LFE ch, ~384.00 kbps avg |Многоголосый закадровый, Домашнее видео|
Аудио: Russian: 48 kHz, AC3, 2/0 (L,R), ~256.00 kbps avg |Многоголосый закадровый, НТВ / СТС|
Аудио: Russian: 48 kHz, AC3, 2/0 (L,R), ~192.00 kbps avg |Многоголосый закадровый, Россия|
Аудио: Russian: 48 kHz/16-bit, DTS-HD MA 5.1, ~2291.00 kbps avg (DTS Core: 5.1 / 48 kHz / 1509 kbps / 16-bit) |Двухголосый закадровый, Петр Гланц и Инна Королева|
Аудио: Russian: 48 kHz/16-bit, DTS-HD MA 5.1, ~2294.00 kbps avg (DTS Core: 5.1 / 48 kHz / 1509 kbps / 16-bit) |Одноголосый закадровый, Леонид Володарский|
Аудио: Russian: 48 kHz, AC3, 2/0 (L,R), ~192.00 kbps avg |Одноголосый закадровый, Евгений Гранкин|
Аудио: Russian: 48 kHz, AC3, 2/0 (L,R), ~192.00 kbps avg |Одноголосый закадровый, Леонид Векшин|
Аудио: Russian: 48 kHz, AC3, 3/2 (L,С,R,l,r) + LFE ch, ~448.00 kbps avg |Одноголосый закадровый, Kuzen|
Аудио: French: 48 kHz/16-bit, DTS-HD MA 5.1, ~2440.00 kbps avg (DTS Core: 5.1 / 48 kHz / 1509 kbps / 16-bit)
Cубтитры: русские (R5, Flexor), английские
Цитата:
  • Ремукс с немецкого исходника без глитчей (рассыпаний картинки).
    GER vs [url=http://***/forum/viewtopic.php?t=3542999]ITA[/url]

  • Дорожки № 7, 8 получены микшированием чистых голосов переводчиков с центром французской DTS-HD MA дорожки.
Цитата:
За исходники звука большое спасибо:
CP Digital - HANSMER
LDV - selanne
Домашнее видео - shonni
Россия - swapp208
НТВ / СТС - xfiles
Векшин - ilya29
Гранкин - некой группе alltrans.
MediaInfo
General
Unique ID                                : 226435620385586340568241532527900848642 (0xAA59EA078BE6265A9A3C86F1739B7202)
Complete name                            : E:\Фильмы\Васаби 2001.mkv
Format                                   : Matroska
Format version                           : Version 2
File size                                : 19.0 GiB
Duration                                 : 1h 33mn
Overall bit rate mode                    : Variable
Overall bit rate                         : 28.9 Mbps
Movie name                               : Васаби 2001
Encoded date                             : UTC 2015-08-07 18:04:56
Writing application                      : mkvmerge v4.9.1 ('Ich will') сборка от Jul 11 2011 23:53:15
Writing library                          : libebml v1.2.1 + libmatroska v1.1.1
Video
ID                                       : 1
Format                                   : AVC
Format/Info                              : Advanced Video Codec
Format profile                           : High@L4.1
Format settings, CABAC                   : Yes
Format settings, ReFrames                : 4 frames
Muxing mode                              : Container profile=Unknown@0.0
Codec ID                                 : V_MPEG4/ISO/AVC
Duration                                 : 1h 33mn
Bit rate mode                            : Variable
Maximum bit rate                         : 40.0 Mbps
Width                                    : 1 920 pixels
Height                                   : 1 080 pixels
Display aspect ratio                     : 16:9
Frame rate mode                          : Constant
Frame rate                               : 23.976 fps
Color space                              : YUV
Chroma subsampling                       : 4:2:0
Bit depth                                : 8 bits
Scan type                                : Progressive
Title                                    : Wasabi 2001 1080p GER Blu-ray AVC DTS-HD MA 5.1
Language                                 : French
Default                                  : Yes
Forced                                   : No
Color primaries                          : BT.709
Transfer characteristics                 : BT.709
Matrix coefficients                      : BT.709
Color range                              : Limited
Audio #1
ID                                       : 2
Format                                   : AC-3
Format/Info                              : Audio Coding 3
Mode extension                           : CM (complete main)
Format settings, Endianness              : Big
Codec ID                                 : A_AC3
Duration                                 : 1h 33mn
Bit rate mode                            : Constant
Bit rate                                 : 448 Kbps
Channel(s)                               : 6 channels
Channel positions                        : Front: L C R, Side: L R, LFE
Sampling rate                            : 48.0 KHz
Bit depth                                : 16 bits
Compression mode                         : Lossy
Stream size                              : 301 MiB (2%)
Title                                    : 48 kHz, AC3, 3/2 (L,C,R,l,r) + LFE ch, ~448.00 kbps avg |Дубляж, R5 Союз-Видео|
Language                                 : Russian
Default                                  : Yes
Forced                                   : No
Audio #2
ID                                       : 3
Format                                   : AC-3
Format/Info                              : Audio Coding 3
Mode extension                           : CM (complete main)
Format settings, Endianness              : Big
Codec ID                                 : A_AC3
Duration                                 : 1h 33mn
Bit rate mode                            : Constant
Bit rate                                 : 448 Kbps
Channel(s)                               : 6 channels
Channel positions                        : Front: L C R, Side: L R, LFE
Sampling rate                            : 48.0 KHz
Bit depth                                : 16 bits
Compression mode                         : Lossy
Stream size                              : 301 MiB (2%)
Title                                    : 48 kHz, AC3, 3/2 (L,C,R,l,r) + LFE ch, ~448.00 kbps avg |Многоголосый закадровый, CP Digital|
Language                                 : Russian
Default                                  : No
Forced                                   : No
Audio #3
ID                                       : 4
Format                                   : AC-3
Format/Info                              : Audio Coding 3
Mode extension                           : CM (complete main)
Format settings, Endianness              : Big
Codec ID                                 : A_AC3
Duration                                 : 1h 33mn
Bit rate mode                            : Constant
Bit rate                                 : 384 Kbps
Channel(s)                               : 6 channels
Channel positions                        : Front: L C R, Side: L R, LFE
Sampling rate                            : 48.0 KHz
Bit depth                                : 16 bits
Compression mode                         : Lossy
Stream size                              : 258 MiB (1%)
Title                                    : 48 kHz, AC3, 3/2 (L,C,R,l,r) + LFE ch, ~384.00 kbps avg |Многоголосый закадровый, LDV|
Language                                 : Russian
Default                                  : No
Forced                                   : No
Audio #4
ID                                       : 5
Format                                   : AC-3
Format/Info                              : Audio Coding 3
Mode extension                           : CM (complete main)
Format settings, Endianness              : Big
Codec ID                                 : A_AC3
Duration                                 : 1h 33mn
Bit rate mode                            : Constant
Bit rate                                 : 384 Kbps
Channel(s)                               : 6 channels
Channel positions                        : Front: L C R, Side: L R, LFE
Sampling rate                            : 48.0 KHz
Bit depth                                : 16 bits
Compression mode                         : Lossy
Stream size                              : 258 MiB (1%)
Title                                    : 48 kHz, AC3, 3/2 (L,C,R,l,r) + LFE ch, ~384.00 kbps avg |Многоголосый закадровый, Домашнее видео|
Language                                 : Russian
Default                                  : No
Forced                                   : No
Audio #5
ID                                       : 6
Format                                   : AC-3
Format/Info                              : Audio Coding 3
Mode extension                           : CM (complete main)
Format settings, Endianness              : Big
Codec ID                                 : A_AC3
Duration                                 : 1h 33mn
Bit rate mode                            : Constant
Bit rate                                 : 256 Kbps
Channel(s)                               : 2 channels
Channel positions                        : Front: L R
Sampling rate                            : 48.0 KHz
Bit depth                                : 16 bits
Compression mode                         : Lossy
Stream size                              : 172 MiB (1%)
Title                                    : 48 kHz, AC3, 2/0 (L,R), ~256.00 kbps avg |Многоголосый закадровый, НТВ / СТС|
Language                                 : Russian
Default                                  : No
Forced                                   : No
Audio #6
ID                                       : 7
Format                                   : AC-3
Format/Info                              : Audio Coding 3
Mode extension                           : CM (complete main)
Format settings, Endianness              : Big
Codec ID                                 : A_AC3
Duration                                 : 1h 33mn
Bit rate mode                            : Constant
Bit rate                                 : 192 Kbps
Channel(s)                               : 2 channels
Channel positions                        : Front: L R
Sampling rate                            : 48.0 KHz
Bit depth                                : 16 bits
Compression mode                         : Lossy
Stream size                              : 129 MiB (1%)
Title                                    : 48 kHz, AC3, 2/0 (L,R), ~192.00 kbps avg |Многоголосый закадровый, Россия|
Language                                 : Russian
Default                                  : No
Forced                                   : No
Audio #7
ID                                       : 8
Format                                   : DTS
Format/Info                              : Digital Theater Systems
Format profile                           : MA / Core
Mode                                     : 16
Format settings, Endianness              : Big
Codec ID                                 : A_DTS
Duration                                 : 1h 33mn
Bit rate mode                            : Variable
Bit rate                                 : Unknown / 1 509 Kbps
Channel(s)                               : 6 channels
Channel positions                        : Front: L C R, Side: L R, LFE
Sampling rate                            : 48.0 KHz
Bit depth                                : 16 bits
Compression mode                         : Lossless / Lossy
Title                                    : 48 kHz/16-bit, DTS-HD MA 5.1, ~2291.00 kbps avg |Двухголосый закадровый, Петр Гланц и Инна Королева|
Language                                 : Russian
Default                                  : No
Forced                                   : No
Audio #8
ID                                       : 9
Format                                   : DTS
Format/Info                              : Digital Theater Systems
Format profile                           : MA / Core
Mode                                     : 16
Format settings, Endianness              : Big
Codec ID                                 : A_DTS
Duration                                 : 1h 33mn
Bit rate mode                            : Variable
Bit rate                                 : Unknown / 1 509 Kbps
Channel(s)                               : 6 channels
Channel positions                        : Front: L C R, Side: L R, LFE
Sampling rate                            : 48.0 KHz
Bit depth                                : 16 bits
Compression mode                         : Lossless / Lossy
Title                                    : 48 kHz/16-bit, DTS-HD MA 5.1, ~2294.00 kbps avg |Одноголосый закадровый, Леонид Володарский|
Language                                 : Russian
Default                                  : No
Forced                                   : No
Audio #9
ID                                       : 10
Format                                   : AC-3
Format/Info                              : Audio Coding 3
Mode extension                           : CM (complete main)
Format settings, Endianness              : Big
Codec ID                                 : A_AC3
Duration                                 : 1h 33mn
Bit rate mode                            : Constant
Bit rate                                 : 192 Kbps
Channel(s)                               : 2 channels
Channel positions                        : Front: L R
Sampling rate                            : 48.0 KHz
Bit depth                                : 16 bits
Compression mode                         : Lossy
Stream size                              : 129 MiB (1%)
Title                                    : 48 kHz, AC3, 2/0 (L,R), ~192.00 kbps avg |Одноголосый закадровый, Евгений Гранкин|
Language                                 : Russian
Default                                  : No
Forced                                   : No
Audio #10
ID                                       : 11
Format                                   : AC-3
Format/Info                              : Audio Coding 3
Mode extension                           : CM (complete main)
Format settings, Endianness              : Big
Codec ID                                 : A_AC3
Duration                                 : 1h 33mn
Bit rate mode                            : Constant
Bit rate                                 : 192 Kbps
Channel(s)                               : 2 channels
Channel positions                        : Front: L R
Sampling rate                            : 48.0 KHz
Bit depth                                : 16 bits
Compression mode                         : Lossy
Stream size                              : 129 MiB (1%)
Title                                    : 48 kHz, AC3, 2/0 (L,R), ~192.00 kbps avg |Одноголосый закадровый, Леонид Векшин|
Language                                 : Russian
Default                                  : No
Forced                                   : No
Audio #11
ID                                       : 12
Format                                   : AC-3
Format/Info                              : Audio Coding 3
Mode extension                           : CM (complete main)
Format settings, Endianness              : Big
Codec ID                                 : A_AC3
Duration                                 : 1h 33mn
Bit rate mode                            : Constant
Bit rate                                 : 448 Kbps
Channel(s)                               : 6 channels
Channel positions                        : Front: L C R, Side: L R, LFE
Sampling rate                            : 48.0 KHz
Bit depth                                : 16 bits
Compression mode                         : Lossy
Stream size                              : 301 MiB (2%)
Title                                    : 48 kHz, AC3, 3/2 (L,С,R,l,r) + LFE ch, ~448.00 kbps avg |Одноголосый закадровый, Kuzen|
Language                                 : Russian
Default                                  : No
Forced                                   : No
Audio #12
ID                                       : 13
Format                                   : DTS
Format/Info                              : Digital Theater Systems
Format profile                           : MA / Core
Mode                                     : 16
Format settings, Endianness              : Big
Codec ID                                 : A_DTS
Duration                                 : 1h 33mn
Bit rate mode                            : Variable
Bit rate                                 : Unknown / 1 509 Kbps
Channel(s)                               : 6 channels
Channel positions                        : Front: L C R, Side: L R, LFE
Sampling rate                            : 48.0 KHz
Bit depth                                : 16 bits
Compression mode                         : Lossless / Lossy
Title                                    : 48 kHz/16-bit, DTS-HD MA 5.1, ~2440.00 kbps avg
Language                                 : French
Default                                  : No
Forced                                   : No
Text #1
ID                                       : 14
Format                                   : UTF-8
Codec ID                                 : S_TEXT/UTF8
Codec ID/Info                            : UTF-8 Plain Text
Title                                    : R5
Language                                 : Russian
Default                                  : No
Forced                                   : No
Text #2
ID                                       : 15
Format                                   : UTF-8
Codec ID                                 : S_TEXT/UTF8
Codec ID/Info                            : UTF-8 Plain Text
Title                                    : Flexor
Language                                 : Russian
Default                                  : No
Forced                                   : No
Text #3
ID                                       : 16
Format                                   : UTF-8
Codec ID                                 : S_TEXT/UTF8
Codec ID/Info                            : UTF-8 Plain Text
Language                                 : English
Default                                  : No
Forced                                   : No
Menu
00:00:00.000                             : en:Start
00:02:26.479                             : en:The Chief's Son
00:06:04.572                             : en:Tranny Interview
00:10:07.940                             : en:Banque De L'etoile Robbery
00:12:36.797                             : en:Two Month Suspension
00:16:24.400                             : en:Dinner with Sofia
00:18:45.207                             : en:My Name Is Hishibashi
00:22:23.133                             : en:Welcome to Japan
00:24:41.229                             : en:Momo
00:29:24.596                             : en:Sole Legatee
00:32:14.933                             : en:Yumi
00:37:53.729                             : en:The Crematorium
00:42:59.952                             : en:Miko's File
00:49:44.314                             : en:Yumi's Inheritance
00:55:24.070                             : en:Red Alert
01:00:56.903                             : en:Goon's With Shades
01:07:25.958                             : en:Arms & Fashion Show
01:14:01.937                             : en:The Nightclub
01:17:05.454                             : en:Yakuza Shootout
01:19:13.206                             : en:Names & Numbers
01:25:31.000                             : en:Like Tigers & Wolves
01:28:50.867                             : en:Takanawa Aka the Zebra
Скриншоты
Скачать

Скачать торрент!

Как скачивать? · Что такое торрент? · Рейтинг и ограничения

Сайт не распространяет и не хранит электронные версии произведений, а лишь предоставляет доступ к создаваемому пользователями каталогу ссылок на торрент-файлы, которые содержат только списки хеш-сумм

[Профиль] [ЛС]
Показать сообщения:    
Ответить на тему

Текущее время: Сегодня 10:03

Часовой пояс: GMT + 4



Вы не можете начинать темы
Вы не можете отвечать на сообщения
Вы не можете редактировать свои сообщения
Вы не можете удалять свои сообщения
Вы не можете голосовать в опросах
Вы не можете прикреплять файлы к сообщениям
Вы не можете скачивать файлы