Майкл / Michael (Нора Эфрон / Nora Ephron) [1996, США, фэнтези, драма, комедия, WEB-DL 720p] DVO + AVO + 2x VO + Sub Rus, Eng + Original Eng

Ответить на тему
 
Автор Сообщение

user ®

Стаж: 7 лет 7 месяцев

Сообщений: 20008

Пост Пост: #1 от 12-Авг-2015 23:24

[Цитировать]

Майкл / Michael Страна: США
Студия: Alphaville Films, Krane Entertainment, Turner Pictures
Жанр: фэнтези, драма, комедия
Год выпуска: 1996
Продолжительность: 01:45:04
Перевод 1: Профессиональный (двухголосый закадровый) [НТВ+]
Перевод 2: Авторский (одноголосый закадровый) [Сербин]
Перевод 3: Одноголосый закадровый [Попов]
Перевод 4: Одноголосый закадровый
Cубтитры: русские (х2), английские, SDH
Оригинальная аудиодорожка: английский
Режиссер: Нора Эфрон / Nora Ephron
В ролях: Джон Траволта, Энди МакДауэлл, Уильям Хёрт, Боб Хоскинс, Роберт Пасторелли, Джин Степлтон, Тери Гарр, Уоллес Лэнгэм, Джои Лорен Эдамс, Карла Гуджино, Том Ходжис, Кэтрин Ллойд Барнс, Ричард Шифф, Джоан Фрегалетт Джэнсен, Джон Хасси, Маргарет Траволта, Джеймс Н. Харрелл, Дайян Дрейер
Описание: Его зовут Майкл. Он живет где-то в захолустье, в прогорающем мотеле посреди штата Айова. Он любитель выпивки, женщин и праздной жизни. Он просто ангел… Не верите? У него, как и положено, есть крылья.- -Тип релиза: WEB-DL 720p
Контейнер: MKV
Видео: MPEG-4 AVC Video, 1274x720 / 1,77:1 (16:9) / ~3870 kbps / 23,976 fps / High@L3.1
Аудио 1: Russian: AC3, 2.0 mono, 192 kbps, 48 kHz | НТВ+
Аудио 2: Russian: AC3 Surround, 2.0 ch, 256 kbps, 48 kHz | Сербин
Аудио 3: Russian: AC3, 5.0 ch, 384 kbps, 48 kHz | Попов
Аудио 4: Russian: AC3, 5.0 ch, 384 kbps, 48 kHz | одноголосый
Аудио 5: English: AC3, 5.0 ch, 384 kbps, 48 kHz
Формат субтитров: softsub (SRT)
Главы: подписаны (eng)
MediaInfo
Общее
Уникальный идентификатор : 214562234036426311655775994179337546256 (0xA16B2EE2B105333E84BFCB14066B6A10)
Полное имя : N:\Майкл 1996.WEB-DL.720p.ПД.2хАО.НО.Eng.mkv
Формат : Matroska
Версия формата : Version 4 / Version 2
Размер файла : 4,10 Гбайт
Продолжительность : 1 ч. 45 м.
Общий поток : 5580 Кбит/сек
Название фильма : Michael (1996)
Дата кодирования : UTC 2015-08-09 10:20:13
Программа кодирования : mkvmerge v8.2.0 ('World of Adventure') 32bit
Библиотека кодирования : libebml v1.3.1 + libmatroska v1.4.2
Attachements : cover_land.jpg / small_cover.jpg / small_cover_land.jpg / cover.jpg
Видео
Идентификатор : 1
Формат : AVC
Формат/Информация : Advanced Video Codec
Профиль формата : High@L3.1
Параметр CABAC формата : Нет
Параметр ReFrames формата : 2 кадра
Идентификатор кодека : V_MPEG4/ISO/AVC
Продолжительность : 1 ч. 45 м.
Битрейт : 3869 Кбит/сек
Ширина : 1274 пикселя
Высота : 720 пикселей
Соотношение сторон : 16:9
Режим частоты кадров : Постоянный
Частота кадров : 23,976 кадра/сек
Цветовое пространство : YUV
Субдискретизация насыщенности : 4:2:0
Битовая глубина : 8 бит
Тип развёртки : Прогрессивная
Бит/(Пиксели*Кадры) : 0.176
Размер потока : 2,84 Гбайт (69%)
Язык : English
Default : Да
Forced : Нет
Основные цвета : BT.709
Характеристики трансфера : BT.709
Коэффициенты матрицы : BT.709
colour_range : Limited
Аудио #1
Идентификатор : 2
Формат : AC-3
Формат/Информация : Audio Coding 3
Расширение режима : CM (complete main)
Параметр Endianness формата : Big
Идентификатор кодека : A_AC3
Продолжительность : 1 ч. 45 м.
Вид битрейта : Постоянный
Битрейт : 192 Кбит/сек
Каналы : 2 канала
Расположение каналов : Front: L R
Частота : 48,0 КГц
Битовая глубина : 16 бит
Метод сжатия : С потерями
Размер потока : 144 Мбайт (3%)
Заголовок : AC3 2.0 mono 192kbps - двухголосый (НТВ+)
Язык : Russian
Default : Да
Forced : Нет
Аудио #2
Идентификатор : 3
Формат : AC-3
Формат/Информация : Audio Coding 3
Профиль формата : Dolby Digital
Расширение режима : CM (complete main)
Параметр Endianness формата : Big
Идентификатор кодека : A_AC3
Продолжительность : 1 ч. 45 м.
Вид битрейта : Постоянный
Битрейт : 256 Кбит/сек
Каналы : 2 канала
Расположение каналов : Front: L R
Частота : 48,0 КГц
Битовая глубина : 16 бит
Метод сжатия : С потерями
Размер потока : 192 Мбайт (5%)
Заголовок : AC3 Surround 2.0 ch 256kbps - одноголосый (Сербин)
Язык : Russian
Default : Нет
Forced : Нет
Аудио #3
Идентификатор : 4
Формат : AC-3
Формат/Информация : Audio Coding 3
Расширение режима : CM (complete main)
Параметр Endianness формата : Big
Идентификатор кодека : A_AC3
Продолжительность : 1 ч. 45 м.
Вид битрейта : Постоянный
Битрейт : 384 Кбит/сек
Каналы : 5 каналов
Расположение каналов : Front: L C R, Side: L R
Частота : 48,0 КГц
Битовая глубина : 16 бит
Метод сжатия : С потерями
Размер потока : 289 Мбайт (7%)
Заголовок : AC3 5.0 ch 384kbps - одноголосый (Попов)
Язык : Russian
Default : Нет
Forced : Нет
Аудио #4
Идентификатор : 5
Формат : AC-3
Формат/Информация : Audio Coding 3
Расширение режима : CM (complete main)
Параметр Endianness формата : Big
Идентификатор кодека : A_AC3
Продолжительность : 1 ч. 45 м.
Вид битрейта : Постоянный
Битрейт : 384 Кбит/сек
Каналы : 5 каналов
Расположение каналов : Front: L C R, Side: L R
Частота : 48,0 КГц
Битовая глубина : 16 бит
Метод сжатия : С потерями
Размер потока : 289 Мбайт (7%)
Заголовок : AC3 5.0 ch 384kbps - одноголосый
Язык : Russian
Default : Нет
Forced : Нет
Аудио #5
Идентификатор : 6
Формат : AC-3
Формат/Информация : Audio Coding 3
Расширение режима : CM (complete main)
Параметр Endianness формата : Big
Идентификатор кодека : A_AC3
Продолжительность : 1 ч. 45 м.
Вид битрейта : Постоянный
Битрейт : 384 Кбит/сек
Каналы : 5 каналов
Расположение каналов : Front: L C R, Side: L R
Частота : 48,0 КГц
Битовая глубина : 16 бит
Метод сжатия : С потерями
Размер потока : 289 Мбайт (7%)
Заголовок : AC3 5.0 ch 384kbps
Язык : English
Default : Нет
Forced : Нет
Текст #1
Идентификатор : 7
Формат : UTF-8
Идентификатор кодека : S_TEXT/UTF8
Идентификатор кодека/Информация : UTF-8 Plain Text
Заголовок : v.1
Язык : Russian
Default : Нет
Forced : Нет
Текст #2
Идентификатор : 8
Формат : UTF-8
Идентификатор кодека : S_TEXT/UTF8
Идентификатор кодека/Информация : UTF-8 Plain Text
Заголовок : v.2
Язык : Russian
Default : Нет
Forced : Нет
Текст #3
Идентификатор : 9
Формат : UTF-8
Идентификатор кодека : S_TEXT/UTF8
Идентификатор кодека/Информация : UTF-8 Plain Text
Язык : English
Default : Нет
Forced : Нет
Текст #4
Идентификатор : 10
Формат : UTF-8
Идентификатор кодека : S_TEXT/UTF8
Идентификатор кодека/Информация : UTF-8 Plain Text
Заголовок : SDH
Язык : English
Default : Нет
Forced : Нет
Меню
00:00:00.000 : en:00:00:00 - Credits.
00:01:55.000 : en:00:01:55 - Closing an account.
00:04:01.000 : en:00:04:01 - Winter Wonderland.
00:05:28.000 : en:00:05:28 - Missing Americans and a topless tree.
00:08:49.000 : en:00:08:49 - Off to see an angel.
00:12:52.000 : en:00:12:52 - Dog tales.
00:14:44.000 : en:00:14:44 - Pansy greets her guests.
00:17:17.000 : en:00:17:17 - Meet Michael.
00:21:21.000 : en:00:21:21 - Winged-man theories.
00:24:35.000 : en:00:24:35 - The last breakfast.
00:29:15.000 : en:00:29:15 - The works.
00:31:32.000 : en:00:31:32 - Terms of the trip.
00:36:05.000 : en:00:36:05 - World's largest ball of twine.
00:38:53.000 : en:00:38:53 - The 6,360th battle.
00:42:43.000 : en:00:42:43 - Inventions and other angelic deeds.
00:45:44.000 : en:00:45:44 - Fancy footwork.
00:47:56.000 : en:00:47:56 - Barroom brawl.
00:49:53.000 : en:00:49:53 - A favor behind bars.
00:54:41.000 : en:00:54:41 - In chambers.
00:57:31.000 : en:00:57:31 - Roadside interlude.
01:02:46.000 : en:01:02:46 - The pie capital of America.
01:05:14.000 : en:01:05:14 - The Pie Song.
01:09:08.000 : en:01:09:08 - Room rondelay.
01:13:35.000 : en:01:13:35 - Confessions at dawn.
01:18:32.000 : en:01:18:32 - A miracle.
01:24:02.000 : en:01:24:02 - Godspeed.
01:27:24.000 : en:01:27:24 - Not Quinlan's area.
01:30:23.000 : en:01:30:23 - Solo acts.
01:32:56.000 : en:01:32:56 - The angel of Frank's dreams.
01:36:27.000 : en:01:36:27 - Mission accomplished.
01:38:35.000 : en:01:38:35 - Dancing home; End Credits.
Скриншоты

доп
Скачать

Скачать торрент!

Как скачивать? · Что такое торрент? · Рейтинг и ограничения

Сайт не распространяет и не хранит электронные версии произведений, а лишь предоставляет доступ к создаваемому пользователями каталогу ссылок на торрент-файлы, которые содержат только списки хеш-сумм

[Профиль] [ЛС]
Показать сообщения:    
Ответить на тему

Текущее время: Сегодня 07:59

Часовой пояс: GMT + 4



Вы не можете начинать темы
Вы не можете отвечать на сообщения
Вы не можете редактировать свои сообщения
Вы не можете удалять свои сообщения
Вы не можете голосовать в опросах
Вы не можете прикреплять файлы к сообщениям
Вы не можете скачивать файлы