Герой / Hero (Стивен Фрирз / Stephen Frears) [1992, США, драма, мелодрама, комедия, WEB-DL 1080p] 2x DVO + 2x AVO + Sub Rus, Eng + Original Eng

Ответить на тему
 
Автор Сообщение

user ®

Стаж: 7 лет 7 месяцев

Сообщений: 20008

Пост Пост: #1 от 12-Авг-2015 23:24

[Цитировать]

Герой / Hero Страна: США
Студия: Columbia Pictures Corporation
Жанр: драма, мелодрама, комедия
Год выпуска: 1992
Продолжительность: 01:58:04
Перевод 1: Профессиональный (двухголосый закадровый) [DVD5.R5 - ВидеоСервис]
Перевод 2: Профессиональный (двухголосый закадровый) [НТВ+, Людмила Гнилова, Игорь Тарадайкин]
Перевод 3: Авторский (одноголосый закадровый) [Живов]
Перевод 4: Авторский (одноголосый закадровый) [Михалёв]
Cубтитры: русские, английские
Оригинальная аудиодорожка: английский
Режиссер: Стивен Фрирз / Stephen Frears
В ролях: Дастин Хоффман, Джина Дэвис, Энди Гарсиа, Джоан Кьюсак, Кевин Дж. О’Коннор, Чеви Чейз, Мори Чайкин, Стивен Тоболовски, Кристиан Клименсон, Том Арнольд, Уоррен Берлинджер, Кэди Хаффмен, Сьюзи Кьюсак, Джеймс Мадио, Ричард Рили, Дэниэл Болдуин, Дон Йессо, Дон С. Дэвис, Марни Мосиман, Кейт Батлер, Лэнс Кинси, Майкл Тэлботт, Марита Герати, Клеа Льюис, Сьюзи Брэк, Эдвард Херрманн, Фишер Стивенс
Описание: Даже такой отрицательный герой, как мелкий воришка Берни Лапланте, может стать положительным, если окажется в нужном месте в нужный час. Например, на месте падения авиалайнера, пассажиров которого ему предстоит спасти.
За этот героический поступок Берни присуждается премия в миллион долларов. Но между ним и заветным чеком вклинивается самозванец, готовый ради такой суммы выдать себя за кого угодно, хоть за самого Берни Лапланте.- -Тип релиза: WEB-DL 1080p
Контейнер: MKV
Видео: MPEG-4 AVC Video, 1916x1076 / 1,78:1 (16:9) / ~4812 kbps / 23,976 fps / High@L4.0
Аудио 1: Russian: AC3, 2.0 ch, 320 kbps, 48 kHz | ВидеоСервис
Аудио 2: Russian: AC3, 2.0 ch, 192 kbps, 48 kHz | НТВ+
Аудио 3: Russian: AC3, 2.0 ch, 192 kbps, 48 kHz | Живов
Аудио 4: Russian: AC3, 2.0 ch, 192 kbps, 48 kHz | Михалёв
Аудио 5: English: AC3, 2.0 ch, 192 kbps, 48 kHz
Формат субтитров: softsub (SRT)
Главы: подписаны (eng)
MediaInfo
Общее
Уникальный идентификатор : 210954184748387400465613625478678738940 (0x9EB44C52409BA8818046A690536A77FC)
Полное имя : N:\Герой 1992.WEB-DL.1080p.2хПД.2хАО.Eng.mkv
Формат : Matroska
Версия формата : Version 4 / Version 2
Размер файла : 4,96 Гбайт
Продолжительность : 1 ч. 58 м.
Общий поток : 6019 Кбит/сек
Название фильма : Hero (1992)
Дата кодирования : UTC 2015-08-08 15:28:31
Программа кодирования : mkvmerge v8.2.0 ('World of Adventure') 32bit
Библиотека кодирования : libebml v1.3.1 + libmatroska v1.4.2
Видео
Идентификатор : 1
Формат : AVC
Формат/Информация : Advanced Video Codec
Профиль формата : High@L4.0
Параметр CABAC формата : Да
Параметр ReFrames формата : 4 кадра
Идентификатор кодека : V_MPEG4/ISO/AVC
Продолжительность : 1 ч. 58 м.
Битрейт : 4812 Кбит/сек
Ширина : 1916 пикселей
Высота : 1076 пикселей
Соотношение сторон : 16:9
Режим частоты кадров : Постоянный
Частота кадров : 23,976 кадра/сек
Цветовое пространство : YUV
Субдискретизация насыщенности : 4:2:0
Битовая глубина : 8 бит
Тип развёртки : Прогрессивная
Бит/(Пиксели*Кадры) : 0.097
Размер потока : 3,97 Гбайт (80%)
Язык : English
Default : Да
Forced : Нет
Основные цвета : BT.709
Характеристики трансфера : BT.709
Коэффициенты матрицы : BT.709
colour_range : Limited
Аудио #1
Идентификатор : 2
Формат : AC-3
Формат/Информация : Audio Coding 3
Расширение режима : CM (complete main)
Параметр Endianness формата : Big
Идентификатор кодека : A_AC3
Продолжительность : 1 ч. 58 м.
Вид битрейта : Постоянный
Битрейт : 320 Кбит/сек
Каналы : 2 канала
Расположение каналов : Front: L R
Частота : 48,0 КГц
Битовая глубина : 16 бит
Метод сжатия : С потерями
Размер потока : 270 Мбайт (5%)
Заголовок : AC3 2.0ch 320kbps - двухголосый (DVD5.R5 - ВидеоСервис)
Язык : Russian
Default : Да
Forced : Нет
Аудио #2
Идентификатор : 3
Формат : AC-3
Формат/Информация : Audio Coding 3
Расширение режима : CM (complete main)
Параметр Endianness формата : Big
Идентификатор кодека : A_AC3
Продолжительность : 1 ч. 58 м.
Вид битрейта : Постоянный
Битрейт : 192 Кбит/сек
Каналы : 2 канала
Расположение каналов : Front: L R
Частота : 48,0 КГц
Битовая глубина : 16 бит
Метод сжатия : С потерями
Размер потока : 162 Мбайт (3%)
Заголовок : AC3 2.0ch 192kbps - двухголосый (НТВ+, Людмила Гнилова, Игорь Тарадайкин)
Язык : Russian
Default : Нет
Forced : Нет
Аудио #3
Идентификатор : 4
Формат : AC-3
Формат/Информация : Audio Coding 3
Расширение режима : CM (complete main)
Параметр Endianness формата : Big
Идентификатор кодека : A_AC3
Продолжительность : 1 ч. 58 м.
Вид битрейта : Постоянный
Битрейт : 192 Кбит/сек
Каналы : 2 канала
Расположение каналов : Front: L R
Частота : 48,0 КГц
Битовая глубина : 16 бит
Метод сжатия : С потерями
Размер потока : 162 Мбайт (3%)
Заголовок : AC3 2.0ch 192kbps - одноголосый (Живов)
Язык : Russian
Default : Нет
Forced : Нет
Аудио #4
Идентификатор : 5
Формат : AC-3
Формат/Информация : Audio Coding 3
Расширение режима : CM (complete main)
Параметр Endianness формата : Big
Идентификатор кодека : A_AC3
Продолжительность : 1 ч. 58 м.
Вид битрейта : Постоянный
Битрейт : 192 Кбит/сек
Каналы : 2 канала
Расположение каналов : Front: L R
Частота : 48,0 КГц
Битовая глубина : 16 бит
Метод сжатия : С потерями
Размер потока : 162 Мбайт (3%)
Заголовок : AC3 2.0ch 192kbps - одноголосый (Михалёв)
Язык : Russian
Default : Нет
Forced : Нет
Аудио #5
Идентификатор : 6
Формат : AC-3
Формат/Информация : Audio Coding 3
Профиль формата : Dolby Digital
Расширение режима : CM (complete main)
Параметр Endianness формата : Big
Идентификатор кодека : A_AC3
Продолжительность : 1 ч. 58 м.
Вид битрейта : Постоянный
Битрейт : 192 Кбит/сек
Каналы : 2 канала
Расположение каналов : Front: L R
Частота : 48,0 КГц
Битовая глубина : 16 бит
Метод сжатия : С потерями
Размер потока : 162 Мбайт (3%)
Заголовок : AC3 2.0ch 192kbps
Язык : English
Default : Нет
Forced : Нет
Текст #1
Идентификатор : 7
Формат : UTF-8
Идентификатор кодека : S_TEXT/UTF8
Идентификатор кодека/Информация : UTF-8 Plain Text
Язык : Russian
Default : Нет
Forced : Нет
Текст #2
Идентификатор : 8
Формат : UTF-8
Идентификатор кодека : S_TEXT/UTF8
Идентификатор кодека/Информация : UTF-8 Plain Text
Язык : English
Default : Нет
Forced : Нет
Меню
00:00:00.000 : en: 00:00:00 - Start
00:02:01.467 : en: 00:02:01 - Bail continued
00:09:50.368 : en: 00:09:50 - A classic exit
00:14:26.969 : en: 00:14:26 - The silver mic
00:17:43.703 : en: 00:17:43 - Well-stocked apartment
00:18:43.637 : en: 00:18:43 - Crash landing
00:23:37.804 : en: 00:23:37 - Hero
00:29:34.904 : en: 00:29:34 - The plane blows
00:31:41.171 : en: 00:31:41 - Three hours late
00:36:35.538 : en: 00:36:35 - Bernie meets Bubber
00:40:00.805 : en: 00:40:00 - The search begins
00:46:13.305 : en: 00:46:13 - Shoe clue
00:48:32.139 : en: 00:48:32 - Under arrest
00:54:00.306 : en: 00:54:00 - Bubber's story
00:57:47.439 : en: 00:57:47 - Penthouse vs.Pen
00:59:11.906 : en: 00:59:11 - Dinner with a hero
01:09:16.573 : en: 01:09:16 - Children's hospital
01:14:46.940 : en: 01:14:46 - Allen baird recovers
01:15:48.107 : en: 01:15:48 - The rehearsal
01:19:47.407 : en: 01:19:47 - Gale's credit cards
01:21:49.074 : en: 01:21:49 - Last words with Joey
01:28:16.675 : en: 01:28:16 - "Bubber's gonna jump!"
01:31:39.442 : en: 01:31:39 - Out on a ledge
01:36:48.809 : en: 01:36:48 - Bernie's plan
01:40:35.243 : en: 01:40:35 - Coffee break
01:43:34.144 : en: 01:43:34 - Extending a hand
01:46:38.244 : en: 01:46:38 - "Was it you?"
01:51:15.544 : en: 01:51:15 - At the zod
Скриншоты

доп
Скачать

Скачать торрент!

Как скачивать? · Что такое торрент? · Рейтинг и ограничения

Сайт не распространяет и не хранит электронные версии произведений, а лишь предоставляет доступ к создаваемому пользователями каталогу ссылок на торрент-файлы, которые содержат только списки хеш-сумм

[Профиль] [ЛС]
Показать сообщения:    
Ответить на тему

Текущее время: Сегодня 00:18

Часовой пояс: GMT + 4



Вы не можете начинать темы
Вы не можете отвечать на сообщения
Вы не можете редактировать свои сообщения
Вы не можете удалять свои сообщения
Вы не можете голосовать в опросах
Вы не можете прикреплять файлы к сообщениям
Вы не можете скачивать файлы