Папа - робот / Кибернетический папа / And You Thought Your Parents Were Weird (Тони Куксон / Tony Cookson) [1991, США, фантастика, комедия, семейный, WEB-DL 720p] MVO + AVO (П.Санаев) + Sub Eng + Original Eng

Ответить на тему
 
Автор Сообщение

user ®

Стаж: 7 лет 7 месяцев

Сообщений: 20008

Пост Пост: #1 от 12-Авг-2015 23:24

[Цитировать]

Папа - робот / Кибернетический папа / And You Thought Your Parents Were Weird
Страна: США
Студия: Panorama film, LionsGate, Trimark pictures
Жанр: фантастика, комедия, семейный
Год выпуска: 1991
Продолжительность: 01:32:06
Перевод: Профессиональный (многоголосый закадровый) студия Инис по заказу ТВ3
Перевод 2: Авторский (одноголосый закадровый) П.Санаев
Cубтитры: английские
Оригинальная аудиодорожка: английский
Режиссер: Тони Куксон / Tony Cookson
В ролях: Марша Стрэссмен, Джошуа Джон Миллер, Эдан Гросс, Джон Квэйд, Сэм Беренс, Алан Тик, Сьюзэн Гибни, А.Дж. Ленджер, Густав Винтас, Эрик Уолкер
Описание: Джош Карсон и его младший брат Мэкс, готовясь к школьной олимпиаде, создали необычного робота. Они назвали его Ньюмэн. Робот умел все и принимал команды «с голоса». И что самое удивительное, в него вселился дух отца мальчиков, который был талантливым электронщиком. Необычным роботом заинтересовалось не только телевидение, но и фирма, занимающаяся воровством чужих идей. Как ребятам удастся победить в неравной борьбе со злодеями?..
Доп. информация: За многоголоску спасибо edich2, за дорожку П. Санаева спасибо Синта Рурони.

Sample
Тип релиза: WEB-DL 720p
Контейнер: MKV
Видео: MPEG4 AVC Video, H264, 16:9, 1280x718, 23.976 fps, 3974 kbps
Аудио: Russian (AC3, 2 ch, 192 kbps, 16 bits, 48.0 KHz) - MVO
Аудио 2: Russian (AC3, 2 ch, 192 kbps, 16 bits, 48.0 KHz) - П.Санаев
Аудио 3: English (AAC, 2 ch, 267 kbps, 16 bits, 48.0 KHz) - оригинал
Формат субтитров: softsub (SRT)

MediaInfo
General
Unique ID : 228424551910711476554460708256911222314 (0xABD8F7ECB8452FF6B976C6E4C530662A)
Complete name : K:\And You Thought Your Parents Were Weird 1991 WEB-DL 720p.mkv
Format : Matroska
Format version : Version 4 / Version 2
File size : 2.95 GiB
Duration : 1h 32mn
Overall bit rate : 4 593 Kbps
Encoded date : UTC 2015-08-10 16:39:56
Writing application : mkvmerge v6.1.0 ('Old Devil') built on Mar 2 2013 14:32:37
Writing library : libebml v1.3.0 + libmatroska v1.4.0
Video
ID : 1
Format : AVC
Format/Info : Advanced Video Codec
Format profile : High@L3.1
Format settings, CABAC : No
Format settings, ReFrames : 2 frames
Codec ID : V_MPEG4/ISO/AVC
Duration : 1h 32mn
Width : 1 280 pixels
Height : 718 pixels
Display aspect ratio : 16:9
Frame rate mode : Constant
Frame rate : 23.976 fps
Color space : YUV
Chroma subsampling : 4:2:0
Bit depth : 8 bits
Scan type : Progressive
Language : English
Default : Yes
Forced : No
Color primaries : BT.709
Transfer characteristics : BT.709
Matrix coefficients : BT.709
Audio #1
ID : 2
Format : AC-3
Format/Info : Audio Coding 3
Mode extension : CM (complete main)
Format settings, Endianness : Big
Codec ID : A_AC3
Duration : 1h 32mn
Bit rate mode : Constant
Bit rate : 192 Kbps
Channel count : 2 channels
Channel positions : Front: L R
Sampling rate : 48.0 KHz
Bit depth : 16 bits
Compression mode : Lossy
Stream size : 126 MiB (4%)
Title : MVO
Language : Russian
Default : Yes
Forced : Yes
Audio #2
ID : 3
Format : AC-3
Format/Info : Audio Coding 3
Mode extension : CM (complete main)
Format settings, Endianness : Big
Codec ID : A_AC3
Duration : 1h 32mn
Bit rate mode : Constant
Bit rate : 192 Kbps
Channel count : 2 channels
Channel positions : Front: L R
Sampling rate : 48.0 KHz
Bit depth : 16 bits
Compression mode : Lossy
Stream size : 126 MiB (4%)
Title : AVO
Language : Russian
Default : No
Forced : No
Audio #3
ID : 4
Format : AAC
Format/Info : Advanced Audio Codec
Format profile : LC
Codec ID : A_AAC
Duration : 1h 32mn
Channel count : 2 channels
Channel positions : Front: L R
Sampling rate : 48.0 KHz
Compression mode : Lossy
Language : English
Default : No
Forced : No
Text
ID : 5
Format : UTF-8
Codec ID : S_TEXT/UTF8
Codec ID/Info : UTF-8 Plain Text
Language : English
Default : No
Forced : No
Menu
00:00:00.000 : en:Chapter 1
00:04:14.000 : en:Chapter 2
00:13:50.000 : en:Chapter 3
00:20:56.000 : en:Chapter 4
00:29:34.000 : en:Chapter 5
00:39:40.000 : en:Chapter 6
00:48:43.000 : en:Chapter 7
00:56:53.000 : en:Chapter 8
01:04:14.000 : en:Chapter 9
01:10:50.000 : en:Chapter 10
01:16:46.000 : en:Chapter 11
01:22:22.000 : en:Chapter 12
01:29:25.000 : en:Chapter 13
Скриншоты
Скачать

Скачать торрент!

Как скачивать? · Что такое торрент? · Рейтинг и ограничения

Сайт не распространяет и не хранит электронные версии произведений, а лишь предоставляет доступ к создаваемому пользователями каталогу ссылок на торрент-файлы, которые содержат только списки хеш-сумм

[Профиль] [ЛС]
Показать сообщения:    
Ответить на тему

Текущее время: Сегодня 12:55

Часовой пояс: GMT + 4



Вы не можете начинать темы
Вы не можете отвечать на сообщения
Вы не можете редактировать свои сообщения
Вы не можете удалять свои сообщения
Вы не можете голосовать в опросах
Вы не можете прикреплять файлы к сообщениям
Вы не можете скачивать файлы