Наполеон и Саманта / Napoleon and Samantha (Бернард МакЭвети / Bernard McEveety) [1972, США, драма, приключения, семейный, WEB-DL 720p] DVO + Sub Eng + Original Eng

Ответить на тему
 
Автор Сообщение

user ®

Стаж: 7 лет 7 месяцев

Сообщений: 20008

Пост Пост: #1 от 12-Авг-2015 23:24

[Цитировать]

Наполеон и Саманта / Napoleon and Samantha
Страна: США
Студия: Walt Disney Productions
Жанр: драма, приключения, семейный
Год выпуска: 1972
Продолжительность: 01:31:25
Перевод: Профессиональный (двухголосый закадровый)
Cубтитры: английские
Оригинальная аудиодорожка: английский
Режиссер: Бернард МакЭвети / Bernard McEveety
В ролях: Майкл Дуглас, Уилл Гир, Арч Джонсон, Джонни Уайтакер, Джоди Фостер, Генри Джонс, Вито Скотти, Джон Кроуфорд, Мэри Уикс, Эллен Корби
Описание: Кто в детстве не мечтал о собаке или даже о собственном льве? У 11-летнего Наполеона, что живет с дедушкой в маленьком американском городке, неожиданно появился друг — лев по кличке Мейджор.
Он очень добрый и любит молоко, а еще когда Наполеон со своей 10-летней подружкой Самантой отправляются в путешествие к другу Дэнни, что живет далеко за горами, то Мэйджер спасает их и от дикой рыси и от бурого медведя живущего в лесной чаще.


Sample
Тип релиза: WEB-DL 720p
Контейнер: MKV
Видео: MPEG4 AVC Video, H264, 16:9, 1280x688, 23.976 fps, 3898 kbps
Аудио: Russian (AC3, 2 ch, 192 kbps, 16 bits, 48.0 KHz) - DVO
Аудио 2: English (AC3, 2 ch, 192 kbps, 16 bits, 48.0 KHz) - оригинал
Формат субтитров: softsub (SRT)

MediaInfo
General
Unique ID : 251719229737993241533395246684063160887 (0xBD5F5C36EC218CADBA6BBB7C9B105A37)
Complete name : K:\Napoleon and Samantha 1972 WEB-DL 720p.mkv
Format : Matroska
Format version : Version 4 / Version 2
File size : 2.79 GiB
Duration : 1h 31mn
Overall bit rate : 4 369 Kbps
Encoded date : UTC 2015-08-10 16:44:36
Writing application : mkvmerge v6.1.0 ('Old Devil') built on Mar 2 2013 14:32:37
Writing library : libebml v1.3.0 + libmatroska v1.4.0
Video
ID : 1
Format : AVC
Format/Info : Advanced Video Codec
Format profile : High@L3.1
Format settings, CABAC : No
Format settings, ReFrames : 2 frames
Codec ID : V_MPEG4/ISO/AVC
Duration : 1h 31mn
Bit rate : 3 898 Kbps
Width : 1 280 pixels
Height : 688 pixels
Display aspect ratio : 1.85:1
Frame rate mode : Constant
Frame rate : 23.976 fps
Color space : YUV
Chroma subsampling : 4:2:0
Bit depth : 8 bits
Scan type : Progressive
Bits/(Pixel*Frame) : 0.185
Stream size : 2.49 GiB (89%)
Language : English
Default : Yes
Forced : No
Color primaries : BT.709
Transfer characteristics : BT.709
Matrix coefficients : BT.709
Audio #1
ID : 2
Format : AC-3
Format/Info : Audio Coding 3
Mode extension : CM (complete main)
Format settings, Endianness : Big
Codec ID : A_AC3
Duration : 1h 31mn
Bit rate mode : Constant
Bit rate : 192 Kbps
Channel count : 2 channels
Channel positions : Front: L R
Sampling rate : 48.0 KHz
Bit depth : 16 bits
Compression mode : Lossy
Stream size : 126 MiB (4%)
Language : Russian
Default : Yes
Forced : Yes
Audio #2
ID : 3
Format : AC-3
Format/Info : Audio Coding 3
Mode extension : CM (complete main)
Format settings, Endianness : Big
Codec ID : A_AC3
Duration : 1h 31mn
Bit rate mode : Constant
Bit rate : 192 Kbps
Channel count : 2 channels
Channel positions : Front: L R
Sampling rate : 48.0 KHz
Bit depth : 16 bits
Compression mode : Lossy
Stream size : 126 MiB (4%)
Language : English
Default : No
Forced : No
Text
ID : 4
Format : UTF-8
Codec ID : S_TEXT/UTF8
Codec ID/Info : UTF-8 Plain Text
Language : English
Default : No
Forced : No
Menu
00:00:00.000 : en:Opening/Jelly Beans and Horses
00:10:22.000 : en:Major, the King of Beasts
00:19:00.000 : en:Signals
00:31:06.000 : en:A Little Odd Job
00:37:47.000 : en:Second Thoughts
00:43:53.000 : en:The Journey to Danny's House
00:57:04.000 : en:A Major Confrontation
01:05:37.000 : en:Danny's Cabin
01:11:49.000 : en:Police Involvment
01:16:31.000 : en:Wanted!
01:20:29.000 : en:Desperate Pursuit
01:28:31.000 : en:Helping/Ending
Скриншоты
Скачать

Скачать торрент!

Как скачивать? · Что такое торрент? · Рейтинг и ограничения

Сайт не распространяет и не хранит электронные версии произведений, а лишь предоставляет доступ к создаваемому пользователями каталогу ссылок на торрент-файлы, которые содержат только списки хеш-сумм

[Профиль] [ЛС]
Показать сообщения:    
Ответить на тему

Текущее время: Сегодня 22:14

Часовой пояс: GMT + 4



Вы не можете начинать темы
Вы не можете отвечать на сообщения
Вы не можете редактировать свои сообщения
Вы не можете удалять свои сообщения
Вы не можете голосовать в опросах
Вы не можете прикреплять файлы к сообщениям
Вы не можете скачивать файлы