Кто я / Who Am I - Kein System ist sicher (Баран бо Одар / Baran bo Odar) [2014, Германия, триллер, BDRip 720p] MVO + Sub Eng, Ger + Original Ger

Ответить на тему
 
Автор Сообщение

user ®

Стаж: 7 лет 7 месяцев

Сообщений: 20008

Пост Пост: #1 от 12-Авг-2015 23:24

[Цитировать]

Кто я / Who Am I - Kein System ist sicher Страна: Германия
Студия: Deutsche Columbia Pictures Film Produktion, Seven Pictures, Wiedemann & Berg Filmproduktion
Жанр: триллер
Год выпуска: 2014
Продолжительность: 01:41:47
Перевод: Любительский (многоголосый закадровый) Paradox & OMSKBIRD records
Cубтитры: английские, немецкие
Оригинальная аудиодорожка: немецкий
Режиссер: Баран бо Одар / Baran bo Odar
В ролях: Том Шиллинг, Элиас ЭмБарек, Вотан Вильке Мёринг, Антуан Моно мл., Ханна Херцшпрунг, Штефан Кампвирт, Трине Дюрхольм, Леопольд Хорнунг, Катарина Матц, Леонхард Каров
Описание: Бенджамин — молодой компьютерный гений. С детства он мечтает стать супергероем из комиксов и покорить мир. Но в реальном мире он — Никто. Его жизнь неожиданно меняется, когда он встречает свою полную противоположность — харизматичного парня Макса. Не желая жить в жестких рамках системы, они совершают череду дерзких кибер-преступлений. Восстав против равнодушного общества, они становятся кумирами для целого поколения. Теперь Бенджамин не просто супергерой, он — самый разыскиваемый хакер в мире. Но что его ждет после погружения в альтернативную реальность? Кто же он на самом деле?…

Тип релиза: BDRip 720p [VietHD]
Контейнер: MKV
Видео: AVC, 1280x536, 5320 Kbps, 25.000 fps
Аудио 1: Russian: 48 kHz, AC3, 3/2 (L,C,R,l,r) + LFE ch, ~640.00 kbps avg |Paradox & OMSKBIRD records|
Аудио 2: German: 48 kHz, AC3, 3/2 (L,C,R,l,r) + LFE ch, ~640.00 kbps avg |Original|
Чаптеры: есть

x264 log
x264 [info]: frame I:1668 Avg QP:12.62 size:113743
x264 [info]: frame P:33792 Avg QP:14.36 size: 51126
x264 [info]: frame B:117216 Avg QP:16.05 size: 19119
x264 [info]: consecutive B-frames: 3.3% 3.0% 9.8% 13.8% 18.4% 38.0% 6.4% 2.5% 1.7% 1.0% 1.2% 1.0%
encoded 152676 frames, 11.89 fps, 5447.46 kb/s, 3965.8 MB
Доп.информация
Текст читали: Анастасия Флигина, Павел Ярощик, Алёна Соколова и Максим Максимов!
MediaInfo
General
Unique ID : 196968305517020235784616361253512301834 (0x942EB73CA3DCB2F6A77043D6BC0A4D0A)
Complete name : D:\\Who.Am.I.Kein.System.ist.sicher.2014.720p.BluRay.DD5.1.x264-Talian-.mkv
Format : Matroska
Format version : Version 2
File size : 4.78 GiB
Duration : 1h 41mn
Overall bit rate : 6 730 Kbps
Movie name : Who.Am.I.Kein.System.ist.sicher-Talian-
Encoded date : UTC 2015-08-11 05:21:23
Writing application : mkvmerge v5.7.0 ('The Whirlwind') built on Jul 8 2012 20:08:51
Writing library : libebml v1.2.3 + libmatroska v1.3.0
Video
ID : 1
Format : AVC
Format/Info : Advanced Video Codec
Format profile : High@L4.1
Format settings, CABAC : Yes
Format settings, ReFrames : 12 frames
Codec ID : V_MPEG4/ISO/AVC
Duration : 1h 41mn
Bit rate : 5 316 Kbps
Width : 1 280 pixels
Height : 536 pixels
Display aspect ratio : 2.40:1
Frame rate : 25.000 fps
Color space : YUV
Chroma subsampling : 4:2:0
Bit depth : 8 bits
Scan type : Progressive
Bits/(Pixel*Frame) : 0.310
Stream size : 3.78 GiB (79%)
Title : VietHD
Writing library : x264 core 146 r0+2584 6cf85c6 t_mod_Custom [8-bit@all ]
Encoding settings : cabac=1 / ref=12 / deblock=1:-3:-3 / analyse=0x3:0x133 / me=umh / subme=10 / psy=1 / fade_compensate=0.00 / psy_rd=1.00:0.00 / mixed_ref=1 / me_range=24 / chroma_me=1 / trellis=2 / 8x8dct=1 / cqm=0 / deadzone=21,11 / fast_pskip=0 / chroma_qp_offset=-2 / threads=12 / lookahead_threads=3 / sliced_threads=0 / nr=0 / decimate=0 / interlaced=0 / bluray_compat=0 / constrained_intra=0 / fgo=0 / bframes=11 / b_pyramid=2 / b_adapt=2 / b_bias=0 / direct=3 / weightb=1 / open_gop=0 / weightp=2 / keyint=250 / keyint_min=25 / scenecut=40 / intra_refresh=0 / rc_lookahead=60 / rc=crf / mbtree=0 / crf=15.7000 / qcomp=0.60 / qpmin=0:0:0 / qpmax=69:69:69 / qpstep=4 / vbv_maxrate=62500 / vbv_bufsize=78125 / crf_max=0.0 / nal_hrd=none / filler=0 / ip_ratio=1.40 / pb_ratio=1.30 / aq=3:0.85 / aq-sensitivity=10.00 / aq-factor=1.00:1.00:1.00 / aq2=0 / aq3=0
Language : English
Default : Yes
Forced : No
Matrix coefficients : BT.709-5, BT.1361, IEC 61966-2-4 709, SMPTE RP177
Audio #1
ID : 2
Format : AC-3
Format/Info : Audio Coding 3
Mode extension : CM (complete main)
Format settings, Endianness : Big
Codec ID : A_AC3
Duration : 1h 41mn
Bit rate mode : Constant
Bit rate : 640 Kbps
Channel(s) : 6 channels
Channel positions : Front: L C R, Side: L R, LFE
Sampling rate : 48.0 KHz
Bit depth : 16 bits
Compression mode : Lossy
Stream size : 466 MiB (10%)
Title : MVO-Paradox & OMSKBIRD records
Language : Russian
Default : Yes
Forced : No
Audio #2
ID : 3
Format : AC-3
Format/Info : Audio Coding 3
Mode extension : CM (complete main)
Format settings, Endianness : Big
Codec ID : A_AC3
Duration : 1h 41mn
Bit rate mode : Constant
Bit rate : 640 Kbps
Channel(s) : 6 channels
Channel positions : Front: L C R, Side: L R, LFE
Sampling rate : 48.0 KHz
Bit depth : 16 bits
Compression mode : Lossy
Stream size : 466 MiB (10%)
Title : Original
Language : German
Default : No
Forced : No
Text #1
ID : 4
Format : UTF-8
Codec ID : S_TEXT/UTF8
Codec ID/Info : UTF-8 Plain Text
Title : Sub
Language : English
Default : No
Forced : No
Text #2
ID : 5
Format : UTF-8
Codec ID : S_TEXT/UTF8
Codec ID/Info : UTF-8 Plain Text
Title : Sub
Language : German
Default : No
Forced : No
Menu
00:00:00.000 : en:00:00:00.000
00:04:27.080 : en:00:04:27.080
00:11:11.240 : en:00:11:11.240
00:18:06.320 : en:00:18:06.320
00:24:45.840 : en:00:24:45.840
00:29:37.960 : en:00:29:37.960
00:36:23.040 : en:00:36:23.040
00:41:53.920 : en:00:41:53.920
00:48:30.000 : en:00:48:30.000
00:55:18.920 : en:00:55:18.920
01:01:10.960 : en:01:01:10.960
01:06:13.920 : en:01:06:13.920
01:09:59.280 : en:01:09:59.280
01:17:00.160 : en:01:17:00.160
01:23:37.360 : en:01:23:37.360
01:37:55.440 : en:01:37:55.440
Скриншоты
Source vs Encode


Скачать

Скачать торрент!

Как скачивать? · Что такое торрент? · Рейтинг и ограничения

Сайт не распространяет и не хранит электронные версии произведений, а лишь предоставляет доступ к создаваемому пользователями каталогу ссылок на торрент-файлы, которые содержат только списки хеш-сумм

[Профиль] [ЛС]
Показать сообщения:    
Ответить на тему

Текущее время: Сегодня 04:03

Часовой пояс: GMT + 4



Вы не можете начинать темы
Вы не можете отвечать на сообщения
Вы не можете редактировать свои сообщения
Вы не можете удалять свои сообщения
Вы не можете голосовать в опросах
Вы не можете прикреплять файлы к сообщениям
Вы не можете скачивать файлы