Хлопушка и Вонючки / Slappy and the Stinkers (Барнет Келлман / Barnet Kellman) [1998, США, комедия, семейный, WEB-DL 1080p] DVO (Видеосервис) + MVO (СТС) + Sub Eng + Original Eng

Ответить на тему
 
Автор Сообщение

user ®

Стаж: 7 лет 7 месяцев

Сообщений: 20008

Пост Пост: #1 от 12-Авг-2015 17:12

[Цитировать]

Хлопушка и Вонючки / Slappy and the Stinkers
Страна: США
Жанр: комедия, семейный
Год выпуска: 1998
Продолжительность: 01:18:28
Перевод 1: Профессиональный (двухголосый закадровый) Видеосервис
Перевод 2: Профессиональный (многоголосый закадровый) СТС
Cубтитры: английские
Оригинальная аудиодорожка: английский
Режиссер: Барнет Келлман / Barnet Kellman
В ролях: Б.Д. Вонг, Бронсон Пиншо, Дженнифер Кулидж, Джозеф Эштон, Гари Лерой Грэй, Карл Майкл Линднер, Скарлетт Поумерс, Тревис Тедфорд, Дэвид Дьюкс, Спенсер Клейн...
Описание: На улице лето, однако ученики школы Дартмур вынуждены проводить его в скучных классах. Ничего удивительного, что друзьям не хватает веселья, особенно если над душой стоят строгие учителя. После скандала со стулом — ракетой, который друзья соорудили в надежде «полетать» им лучше не нарываться больше на неприятности.
Во время экскурсии в океанариум они ускользают в поисках очередных приключений, и обнаруживают веселого морского льва по прозвищу Хлопушка. Если один ребенок смог «освободить Вилли», то уж пятеро точно смогут освободить морского льва, решают друзья.
Доп. информация: За оцифровку VHS от Видеосервис спасибо ochkarik1. Синхронизация звука - Dreven.
Сэмпл: http://multi-up.com/1061807
Тип релиза: WEB-DL 1080p
Контейнер: MKV
Видео: 1914x1072 (16:9), 23.976 fps, AVC, ~5034 Kbps, 0.102 bits/pixel
Аудио 1: Russian, 48.0 KHz, AC3, 2 ch, 192 Kbps - Видеосервис
Аудио 2: Russian, 48.0 KHz, AC3, 2 ch, 192 Kbps - СТС
Аудио 3: English, 48.0 KHz, AC3, 6 ch, 384 Kbps

MediaInfo
General
Unique ID : 189691611545629586412098388082700541899 (0x8EB5468658F4DBABBE7AE1ECDBAF5FCB)
Complete name : C:\Slappy and the Stinkers. WEB-DL 1080p.mkv
Format : Matroska
Format version : Version 4 / Version 2
File size : 3.24 GiB
Duration : 1h 18mn
Overall bit rate : 5 920 Kbps
Encoded date : UTC 2015-08-08 10:58:53
Writing application : mkvmerge v8.1.0 ('Psychedelic Postcard') 64bit
Writing library : libebml v1.3.1 + libmatroska v1.4.2
DURATION : 01:12:28.690000000
NUMBER_OF_FRAMES : 731
NUMBER_OF_BYTES : 27148
_STATISTICS_WRITING_APP : mkvmerge v8.1.0 ('Psychedelic Postcard') 64bit
_STATISTICS_WRITING_DATE_UT : 2015-08-08 10:58:53
_STATISTICS_TAGS : BPS DURATION NUMBER_OF_FRAMES NUMBER_OF_BYTES
Video
ID : 1
Format : AVC
Format/Info : Advanced Video Codec
Format profile : High@L4
Format settings, CABAC : Yes
Format settings, ReFrames : 4 frames
Codec ID : V_MPEG4/ISO/AVC
Duration : 1h 18mn
Bit rate : 5 034 Kbps
Width : 1 914 pixels
Height : 1 072 pixels
Display aspect ratio : 16:9
Frame rate mode : Constant
Frame rate : 23.976 fps
Color space : YUV
Chroma subsampling : 4:2:0
Bit depth : 8 bits
Scan type : Progressive
Bits/(Pixel*Frame) : 0.102
Stream size : 2.76 GiB (85%)
Language : English
Default : Yes
Forced : No
Color range : Limited
Color primaries : BT.709
Transfer characteristics : BT.709
Matrix coefficients : BT.709
Audio #1
ID : 2
Format : AC-3
Format/Info : Audio Coding 3
Mode extension : CM (complete main)
Format settings, Endianness : Big
Codec ID : A_AC3
Duration : 1h 18mn
Bit rate mode : Constant
Bit rate : 192 Kbps
Channel(s) : 2 channels
Channel positions : Front: L R
Sampling rate : 48.0 KHz
Compression mode : Lossy
Stream size : 108 MiB (3%)
Title : Видеосервис
Language : Russian
Default : Yes
Forced : No
Audio #2
ID : 3
Format : AC-3
Format/Info : Audio Coding 3
Mode extension : CM (complete main)
Format settings, Endianness : Big
Codec ID : A_AC3
Duration : 1h 18mn
Bit rate mode : Constant
Bit rate : 192 Kbps
Channel(s) : 2 channels
Channel positions : Front: L R
Sampling rate : 48.0 KHz
Compression mode : Lossy
Stream size : 108 MiB (3%)
Title : СТС
Language : Russian
Default : No
Forced : No
Audio #3
ID : 4
Format : AC-3
Format/Info : Audio Coding 3
Mode extension : CM (complete main)
Format settings, Endianness : Big
Codec ID : A_AC3
Duration : 1h 18mn
Bit rate mode : Constant
Bit rate : 384 Kbps
Channel(s) : 6 channels
Channel positions : Front: L C R, Side: L R, LFE
Sampling rate : 48.0 KHz
Compression mode : Lossy
Stream size : 216 MiB (6%)
Language : English
Default : No
Forced : No
Text
ID : 5
Format : UTF-8
Codec ID : S_TEXT/UTF8
Codec ID/Info : UTF-8 Plain Text
Language : English
Default : No
Forced : No
Menu
00:00:00.000 : en:Start
00:07:47.000 : en:The Stinkers
00:13:09.000 : en:Aquarium
00:19:29.000 : en:Free Slappy
00:25:45.000 : en:Comforts of Home
00:31:09.000 : en:New Digs
00:38:47.000 : en:Gopher Hunt
00:41:15.000 : en:Back to the Ocean
00:44:52.000 : en:The Fair
00:54:09.000 : en:Rescue Plan
01:00:51.000 : en:Saving Slappy
01:07:37.000 : en:Fall to Freedom
Скриншоты
Скачать

Скачать торрент!

Как скачивать? · Что такое торрент? · Рейтинг и ограничения

Сайт не распространяет и не хранит электронные версии произведений, а лишь предоставляет доступ к создаваемому пользователями каталогу ссылок на торрент-файлы, которые содержат только списки хеш-сумм

[Профиль] [ЛС]
Показать сообщения:    
Ответить на тему

Текущее время: Сегодня 00:12

Часовой пояс: GMT + 4



Вы не можете начинать темы
Вы не можете отвечать на сообщения
Вы не можете редактировать свои сообщения
Вы не можете удалять свои сообщения
Вы не можете голосовать в опросах
Вы не можете прикреплять файлы к сообщениям
Вы не можете скачивать файлы