Бокс! / Bokkusu! / Box! (Тосио Ли / Toshio Lee) [2010, Япония, Мелодрама, комедия, спорт, BDRip] VO (Lenape)

Ответить на тему
 
Автор Сообщение

user ®

Стаж: 13 лет

Сообщений: 15071

Пост Пост: #1 от 12-Авг-2015 04:51

[Цитировать]

Бокс! / Bokkusu! / Box!«Временами этот ветер был свирепым, временами диким, сметая стены на своём пути.Сегодня этот ветер пронёсся по рингу.»- Страна: Япония
Жанр: Мелодрама, комедия, спорт
Год выпуска: 2010
Продолжительность: 02:05:55-Перевод: Одноголосый закадровый [Lenape]
Cубтитры: нет-Режиссер: Тосио Ли / Toshio Lee-В ролях: Хаято Ичихара, Кенго Кора, Ю Касии, Мицуки Танимура, Тосио Какеи, Сува Масаси-Описание: Друзья чувствуют силу друг друга". Китару Юки и Кабурайя Ёсихей - друзья детства. В четвёртом классе Юки переезжает в Токио. Расстроенный и одинокий Кабу ввязывается в одну драку за другой и в итоге решает заняться боксом. Спустя семь лет друзья случайно сталкиваются в электричке. Кабу предлагает Юки вступить в боксёрский клуб, чтобы стать сильным. Благодаря упорным тренировкам Юки начинает преуспевать. Смогут ли друзья пройти через все трудности, которые встанут у них на пути? Смогут ли перебороть себя и справиться со своими слабостями? Ведь бокс - это спорт не для слабаков.-Благодарность:
- за перевод субтитров, по которым делалась озвучка спасибо [url=http://***/forum/profile.php?mode=viewprofile&u=16132700]svartkatt[/url];
- за работу над исходным Blu-ray диском спасибо [url=http://***/forum/profile.php?mode=viewprofile&u=1793838]xfiles[/url];
- спасибо человеку, который купил и переслал мне исходный Blu-ray Disc-Sample | IMDB | КиноПоиск-Тип релиза: BDRip [исх. Blu-ray Disc из личной коллекции]
Формат видео: AVI-Видео: 704x384 (1.83:1), 23.976 fps, XviD build 50, 1274 kbps avg, 0.20 bit/pixel
Аудио: 48 kHz, AC3 Dolby Digital, 3/2 (L,C,R,l,r) + LFE ch, 384.00 kbps avg [Russian_VO]-Релиз группы:[url=http://***/forum/viewtopic.php?t=1677970] [/url]-MediaInfo
General
Complete name : D:\Мои релизы\Bokkusu_BDRip_VO_Lenape_RG_All_Films.avi
Format : AVI
Format/Info : Audio Video Interleave
File size : 1.47 GiB
Duration : 2h 5mn
Overall bit rate : 1 668 Kbps
Writing application : VirtualDubMod 1.6.0.0 SURROUND (build 2560/release)
Writing library : VirtualDubMod build 2560/release
Video
ID : 0
Format : MPEG-4 Visual
Format profile : Advanced Simple@L5
Format settings, BVOP : Yes
Format settings, QPel : No
Format settings, GMC : No warppoints
Format settings, Matrix : Custom
Codec ID : XVID
Codec ID/Hint : XviD
Duration : 2h 5mn
Bit rate : 1 275 Kbps
Width : 704 pixels
Height : 384 pixels
Display aspect ratio : 16:9
Frame rate : 23.976 fps
Color space : YUV
Chroma subsampling : 4:2:0
Bit depth : 8 bits
Scan type : Progressive
Compression mode : Lossy
Bits/(Pixel*Frame) : 0.197
Stream size : 1.12 GiB (76%)
Writing library : XviD 1.2.1 (UTC 2008-12-04)
Audio
ID : 1
Format : AC-3
Format/Info : Audio Coding 3
Mode extension : CM (complete main)
Codec ID : 2000
Duration : 2h 5mn
Bit rate mode : Constant
Bit rate : 384 Kbps
Channel(s) : 6 channels
Channel positions : Front: L C R, Side: L R, LFE
Sampling rate : 48.0 KHz
Bit depth : 16 bits
Compression mode : Lossy
Stream size : 346 MiB (23%)
Alignment : Split accross interleaves
Interleave, duration : 42 ms (1.00 video frame)
Interleave, preload duration : 500 ms
Скриншоты
Скачать

Скачать торрент! Бокс! / Bokkusu! / Box! (Тосио Ли / Toshio Lee) [2010, Япония, Мелодрама, комедия, спорт, BDRip] VO (Lenape)

Как скачивать? · Что такое торрент? · Рейтинг и ограничения

Сайт не распространяет и не хранит электронные версии произведений, а лишь предоставляет доступ к создаваемому пользователями каталогу ссылок на торрент-файлы, которые содержат только списки хеш-сумм

[Профиль] [ЛС]
Показать сообщения:    
Ответить на тему

Текущее время: Сегодня 16:09

Часовой пояс: GMT + 4



Вы не можете начинать темы
Вы не можете отвечать на сообщения
Вы не можете редактировать свои сообщения
Вы не можете удалять свои сообщения
Вы не можете голосовать в опросах
Вы не можете прикреплять файлы к сообщениям
Вы не можете скачивать файлы