Тор 2: Царство тьмы / Thor: The Dark World (Алан Тейлор / Alan Taylor) [2013, США, фэнтези, боевик, приключения, BDRip 720p] Dub + AVO (Гаврилов) + Ukr + Sub Rus, Ukr, Eng + Original Eng

Ответить на тему
 
Автор Сообщение

user ®

Стаж: 7 лет 7 месяцев

Сообщений: 20008

Пост Пост: #1 от 12-Авг-2015 01:45

[Цитировать]

Тор 2: Царство тьмы / Thor: The Dark World Страна: США
Студия: Marvel Entertainment, Marvel Studios Inc.
Жанр: фэнтези, боевик, приключения
Год выпуска: 2013
Продолжительность: 01:52:03
Перевод 1: Профессиональный (дублированный)
Перевод 2: Профессиональный (дублированный) + вставки А. Гаврилова на речь эльфов
Перевод 3: Авторский (одноголосый закадровый) Гаврилов
Cубтитры: русские (forced, Full, Full Анастасия Кисиленко (Medveditsa), Full Notabenoid), украинские (forced, full), английские (forced, full, SDH, SDH Colored, SDH Commentary)
Оригинальная аудиодорожка: английский
Режиссер: Алан Тейлор / Alan Taylor
В ролях: Крис Хемсворт, Натали Портман, Том Хиддлстон, Энтони Хопкинс, Джейми Александер, Рэй Стивенсон, Кэт Деннингс, Идрис Эльба, Стеллан Скарсгард, Рене Руссо, Кристофер Экклстон, Стэн Ли, Адевале Акинойе-Агбаже
Описание: Тору предстоит сразиться за спасение Земли и Девяти Миров от таинственного врага из времен, предшествовавших возникновению вселенной. После событий «Тора» и «Мстителей» главный герой борется за восстановление порядка в космосе, но древняя раса во главе с мстительным Малекитом возвращается, чтобы погрузить вселенную обратно во тьму. Столкнувшись с врагом, которому не способен противостоять ни Один, ни весь Асгард, Тор отправляется в самое рискованное путешествие, которое воссоединит его с Джейн Фостер с Земли и заставит пожертвовать всем ради спасения вселенной.

Тип релиза: BDRip 720p [TayTO]
Контейнер: MKV
Видео: AVC, 1280x534, 7419 kbps, 23.976 fps
Аудио 1: Russian: 48 kHz, AC3, 3/2 (L,C,R,l,r) + LFE ch, ~640.00 kbps avg |Blu-ray CEE|
Аудио 2: Russian: 48 kHz, AC3, 3/2 (L,C,R,l,r) + LFE ch, ~448.00 kbps avg |DUB+вставки А. Гаврилова на речь эльфов|
Аудио 3: Ukrainian: 48 kHz, AC3, 3/2 (L,C,R,l,r) + LFE ch, ~448.00 kbps avg |DUB|
Аудио 4: Russian: 48 kHz, AC3, 3/2 (L,C,R,l,r) + LFE ch, ~640.00 kbps avg |Гаврилов|
Аудио 5: English: 48 kHz, AC3, 3/2 (L,C,R,l,r) + LFE ch, ~640.00 kbps |Original|
Аудио 6: English: 48 kHz, AC3, 2/0 (L,R) ch, ~192.00 kbps avg |Commentary with Director Alan Taylor, Cinematographer Kramer Morgenthau, Producer and Marvel Studios President Kevin Feige, and Actor Tom Hiddleston|
Чаптеры: есть

x264 log
x264 [info]: frame I:1494 Avg QP:10.02 size:132203
x264 [info]: frame P:39404 Avg QP:11.54 size: 67714
x264 [info]: frame B:120299 Avg QP:12.77 size: 30864
x264 [info]: consecutive B-frames: 3.4% 4.0% 11.1% 29.2% 17.6% 25.8% 4.9% 2.4% 0.7% 1.0%
NOTES
Debanding was applied with ConditionalFilter and used zones
Доп.информация
За дорогу Гаврилова спасибо: HDTracker & MyxAmoP_, Gangster, rydanes, KpucTo161, kinobbk, chef&chef, nimph, Role, GaryH, v111o, Hattori Hanzo, saenwert, Denis2251, hulahup, SavineX, foxlight, ZeRoNe, Brown15, Guyver, dunhill200, Chistobaev, lexal, LAVR, kondratzx, Pain_70, Отон, Skibichok, apollion, Luka69, therox, Letyoha3, Диммон, karantin66, -Джосс-, fly32, furria62, Slimka, aladdin, друг aladdin-a, Iron Man.
За украинскую дорогу и сабы сайту:hurtom
MediaInfo
General
Unique ID : 177842045194071076456841564069593276445 (0x85CB21CC2162F1CD93FB1C00F876E01D)
Complete name : D:\рипы\Thor.The.Dark.World.2013.720p.BluRay.DD5.1.x264-Talian-.mkv
Format : Matroska
Format version : Version 2
File size : 8.49 GiB
Duration : 1h 54mn
Overall bit rate : 10.6 Mbps
Movie name : Thor: The Dark World-Talian-
Encoded date : UTC 2015-08-07 18:32:25
Writing application : mkvmerge v5.7.0 ('The Whirlwind') built on Jul 8 2012 20:08:51
Writing library : libebml v1.2.3 + libmatroska v1.3.0
Video
ID : 1
Format : AVC
Format/Info : Advanced Video Codec
Format profile : High@L4.1
Format settings, CABAC : Yes
Format settings, ReFrames : 12 frames
Codec ID : V_MPEG4/ISO/AVC
Duration : 1h 54mn
Bit rate : 7 419 Kbps
Width : 1 280 pixels
Height : 534 pixels
Display aspect ratio : 2.40:1
Frame rate : 23.976 fps
Color space : YUV
Chroma subsampling : 4:2:0
Bit depth : 8 bits
Scan type : Progressive
Bits/(Pixel*Frame) : 0.453
Stream size : 5.92 GiB (70%)
Title : TayTO
Writing library : x264 core 142 r2389kMod 956c8d8
Encoding settings : cabac=1 / ref=12 / deblock=1:-3:-3 / analyse=0x3:0x133 / me=tesa / subme=11 / psy=1 / fade_compensate=0.00 / psy_rd=1.00:0.00 / mixed_ref=1 / me_range=24 / chroma_me=1 / trellis=2 / 8x8dct=1 / cqm=0 / deadzone=21,11 / fast_pskip=0 / chroma_qp_offset=-2 / threads=12 / lookahead_threads=2 / sliced_threads=0 / nr=0 / decimate=1 / interlaced=0 / bluray_compat=0 / constrained_intra=0 / fgo=0 / bframes=9 / b_pyramid=2 / b_adapt=2 / b_bias=0 / direct=3 / weightb=1 / open_gop=0 / weightp=2 / keyint=250 / keyint_min=23 / scenecut=40 / intra_refresh=0 / rc=crf / mbtree=0 / crf=14.0000 / qcomp=0.70 / qpmin=0 / qpmax=69 / qpstep=4 / ip_ratio=1.30 / pb_ratio=1.20 / aq=1:0.85 / zones=254,310,crf=11/399,407,crf=11/1044,1800,crf=11/1810,1848,crf=11/1863,1886,crf=11/1956,1960,crf=12/1970,2194,crf=12/2279,2294,crf=12/2327,3069,crf=12/3081,3117,crf=12/3118,3134,crf=12/3154,4065,crf=12/4133,5284,crf=12/5711,7453,crf=12/7528,7563,crf=12/7648,8081,crf=12/8119,8249,crf=12/8472,8678,crf=12/8959,8987,crf=12/9078,9082,crf=12/9113,9192,crf=12/9194,9204,crf=12/9219,9231,crf=12/9308,9327,crf=12/9403,9438,crf=12/9523,9543,crf=12/9694,9714,crf=12/9729,9731,crf=12/9998,10007,crf=12/10236,10509,crf=12/10683,10727,crf=12/10768,10830,crf=12/10995,11069,crf=12/11169,11222,crf=12/11923,11997,crf=12/12453,12482,crf=12/12693,12742,crf=12/13213,13503,crf=12/14180,14449,crf=12/16075,16142,crf=11/16597,16735,crf=11/16859,18833,crf=12/20009,20066,crf=12/20888,20965,crf=12/21063,21080,crf=12/21620,21659,crf=12/21867,22041,crf=12/22394,22443,crf=12/22514,22560,crf=12/25943,26180,crf=12/26877,27008,crf=12/27083,27275,crf=12/28343,28382,crf=12/29285,29361,crf=12/29427,29534,crf=12/30029,32049,crf=12/32724,32762,crf=12/33358,33506,crf=12/35996,36108,crf=12/41321,41325,crf=12/41522,41536,crf=12/45232,45275,crf=12/46738,46825,crf=12/47165,47276,crf=11/50076,50167,crf=11/55369,55402,crf=11/57460,57550,crf=11/57592,57851,crf=12/58010,58048,crf=12/58263,58328,crf=12/58472,58924,crf=12/59189,59257,crf=12/62987,63122,crf=12/64535,64725,crf=12/64925,65061,crf=12/65715,66820,crf=12/66893,66930,crf=12/66991,67177,crf=12/68861,68922,crf=12/69631,69705,crf=12/70601,70701,crf=12/71775,71874,crf=12/71935,72058,crf=12/72205,72361,crf=12/72532,72587,crf=12/72761,72800,crf=12/72933,72981,crf=12/73035,73435,crf=12/73539,73642,crf=12/73834,73977,crf=12/76109,76260,crf=12/79351,79399,crf=12/80891,81187,crf=12/81253,81388,crf=12/83074,83198,crf=12/83332,83439,crf=12/87841,87862,crf=12/92958,93010,crf=12/93048,93089,crf=11/93208,93303,crf=11/93348,93383,crf=11/93449,93512,crf=12/93621,93649,crf=12/93716,93839,crf=12/93993,94198,crf=12/94597,94710,crf=12/94884,94939,crf=12/96656,96682,crf=12/96760,96773,crf=12/97415,97446,crf=12/98755,98867,crf=12/99682,99807,crf=12
Language : English
Default : Yes
Forced : No
Matrix coefficients : BT.709-5, BT.1361, IEC 61966-2-4 709, SMPTE RP177
Audio #1
ID : 2
Format : AC-3
Format/Info : Audio Coding 3
Mode extension : CM (complete main)
Format settings, Endianness : Big
Codec ID : A_AC3
Duration : 1h 54mn
Bit rate mode : Constant
Bit rate : 640 Kbps
Channel(s) : 6 channels
Channel positions : Front: L C R, Side: L R, LFE
Sampling rate : 48.0 KHz
Bit depth : 16 bits
Compression mode : Lossy
Stream size : 523 MiB (6%)
Title : DUB-Blu-ray CEE
Language : Russian
Default : Yes
Forced : No
Audio #2
ID : 3
Format : AC-3
Format/Info : Audio Coding 3
Mode extension : ME (music and effects)
Format settings, Endianness : Big
Codec ID : A_AC3
Duration : 1h 54mn
Bit rate mode : Constant
Bit rate : 448 Kbps
Channel(s) : 6 channels
Channel positions : Front: L C R, Side: L R, LFE
Sampling rate : 48.0 KHz
Bit depth : 16 bits
Compression mode : Lossy
Stream size : 366 MiB (4%)
Title : DUB+вставки А. Гаврилова на речь эльфов
Language : Russian
Default : No
Forced : No
Audio #3
ID : 4
Format : AC-3
Format/Info : Audio Coding 3
Mode extension : CM (complete main)
Format settings, Endianness : Big
Codec ID : A_AC3
Duration : 1h 54mn
Bit rate mode : Constant
Bit rate : 448 Kbps
Channel(s) : 6 channels
Channel positions : Front: L C R, Side: L R, LFE
Sampling rate : 48.0 KHz
Bit depth : 16 bits
Compression mode : Lossy
Stream size : 366 MiB (4%)
Title : DUB
Language : Ukrainian
Default : No
Forced : No
Audio #4
ID : 5
Format : AC-3
Format/Info : Audio Coding 3
Mode extension : CM (complete main)
Format settings, Endianness : Big
Codec ID : A_AC3
Duration : 1h 54mn
Bit rate mode : Constant
Bit rate : 640 Kbps
Channel(s) : 6 channels
Channel positions : Front: L C R, Side: L R, LFE
Sampling rate : 48.0 KHz
Bit depth : 16 bits
Compression mode : Lossy
Stream size : 523 MiB (6%)
Title : AVO-Гаврилов
Language : Russian
Default : No
Forced : No
Audio #5
ID : 6
Format : AC-3
Format/Info : Audio Coding 3
Mode extension : CM (complete main)
Format settings, Endianness : Big
Codec ID : A_AC3
Duration : 1h 54mn
Bit rate mode : Constant
Bit rate : 640 Kbps
Channel(s) : 6 channels
Channel positions : Front: L C R, Side: L R, LFE
Sampling rate : 48.0 KHz
Bit depth : 16 bits
Compression mode : Lossy
Stream size : 523 MiB (6%)
Title : Original
Language : English
Default : No
Forced : No
Audio #6
ID : 7
Format : AC-3
Format/Info : Audio Coding 3
Mode extension : CM (complete main)
Format settings, Endianness : Big
Codec ID : A_AC3
Duration : 1h 54mn
Bit rate mode : Constant
Bit rate : 192 Kbps
Channel(s) : 2 channels
Channel positions : Front: L R
Sampling rate : 48.0 KHz
Bit depth : 16 bits
Compression mode : Lossy
Stream size : 157 MiB (2%)
Title : Commentary
Language : English
Default : No
Forced : No
Text #1
ID : 8
Format : UTF-8
Codec ID : S_TEXT/UTF8
Codec ID/Info : UTF-8 Plain Text
Title : Sub-forced
Language : Russian
Default : Yes
Forced : No
Text #2
ID : 9
Format : UTF-8
Codec ID : S_TEXT/UTF8
Codec ID/Info : UTF-8 Plain Text
Title : Sub-full
Language : Russian
Default : No
Forced : No
Text #3
ID : 10
Format : UTF-8
Codec ID : S_TEXT/UTF8
Codec ID/Info : UTF-8 Plain Text
Title : Sub-Medveditsa
Language : Russian
Default : No
Forced : No
Text #4
ID : 11
Format : UTF-8
Codec ID : S_TEXT/UTF8
Codec ID/Info : UTF-8 Plain Text
Title : Sub-Notabenoid
Language : Russian
Default : No
Forced : No
Text #5
ID : 12
Format : UTF-8
Codec ID : S_TEXT/UTF8
Codec ID/Info : UTF-8 Plain Text
Title : Sub-forced
Language : Ukrainian
Default : No
Forced : No
Text #6
ID : 13
Format : UTF-8
Codec ID : S_TEXT/UTF8
Codec ID/Info : UTF-8 Plain Text
Title : Sub-full
Language : Ukrainian
Default : No
Forced : No
Text #7
ID : 14
Format : UTF-8
Codec ID : S_TEXT/UTF8
Codec ID/Info : UTF-8 Plain Text
Title : Sub-forced
Language : English
Default : No
Forced : No
Text #8
ID : 15
Format : UTF-8
Codec ID : S_TEXT/UTF8
Codec ID/Info : UTF-8 Plain Text
Title : Sub-full
Language : English
Default : No
Forced : No
Text #9
ID : 16
Format : UTF-8
Codec ID : S_TEXT/UTF8
Codec ID/Info : UTF-8 Plain Text
Title : Sub-SDH
Language : English
Default : No
Forced : No
Text #10
ID : 17
Format : UTF-8
Codec ID : S_TEXT/UTF8
Codec ID/Info : UTF-8 Plain Text
Title : Sub-SDH-COLORED
Language : English
Default : No
Forced : No
Text #11
ID : 18
Format : UTF-8
Codec ID : S_TEXT/UTF8
Codec ID/Info : UTF-8 Plain Text
Title : Sub-Commentary
Language : English
Default : No
Forced : No
Menu
00:00:00.000 : en:Prologue
00:06:14.499 : en:The Nine Realms At Peace
00:13:06.368 : en:Strange Happenings In London
00:18:41.829 : en:The Aether Awakens
00:24:57.662 : en:Welcome To Asgard
00:29:08.496 : en:The Last Of The Kursed
00:41:34.200 : en:Attack On Asgard
00:49:41.061 : en:We Are Not Immortal
00:55:56.978 : en:Desperate Times
01:00:09.731 : en:Escape From Asgard
01:08:13.506 : en:Brothers In Arms
01:12:40.731 : en:Return To The Dark World
01:21:35.307 : en:Follow The Signs
01:26:22.927 : en:Thor vs. Malekith vs. The Convergence
01:33:59.634 : en:The Aether Unleashed
01:38:32.489 : en:Born To Be A King
01:41:50.354 : en:End Credits
Скриншоты
Source vs Filtered vs TayTO


Скачать

Скачать торрент!

Как скачивать? · Что такое торрент? · Рейтинг и ограничения

Сайт не распространяет и не хранит электронные версии произведений, а лишь предоставляет доступ к создаваемому пользователями каталогу ссылок на торрент-файлы, которые содержат только списки хеш-сумм

[Профиль] [ЛС]
Показать сообщения:    
Ответить на тему

Текущее время: Сегодня 08:29

Часовой пояс: GMT + 4



Вы не можете начинать темы
Вы не можете отвечать на сообщения
Вы не можете редактировать свои сообщения
Вы не можете удалять свои сообщения
Вы не можете голосовать в опросах
Вы не можете прикреплять файлы к сообщениям
Вы не можете скачивать файлы