Дивергент, глава 2: Инсургент / Insurgent (Роберт Швентке / Robert Schwentke) [2015, США, Фантастика, приключения, триллер, HDRip] Dub (iTunes)

Ответить на тему
 
Автор Сообщение

user ®

Стаж: 7 лет 7 месяцев

Сообщений: 20008

Пост Пост: #1 от 12-Авг-2015 01:45

[Цитировать]

Дивергент, глава 2: Инсургент / Insurgent
Страна: США
Жанр: Фантастика, приключения, триллер
Год выпуска: 2015
Продолжительность: 01:59:00
Перевод: Профессиональный (дублированный) iTunes
Cубтитры: отсутствуют
Оригинальная аудиодорожка: отсутствует
Режиссер: Роберт Швентке / Robert Schwentke
В ролях: Шейлин Вудли, Тео Джеймс, Кейт Уинслет,
Джай Кортни, Энсел Элгорт, Майлз Теллер, Зои Кравиц,
Мекхай Файфер, Наоми Уоттс, Октавия Спенсер, и др.
Описание: В новой главе антиутопии об обществе, где всё расставлено по полочкам,
а любая индивидуальность подлежит искоренению, Трис должна найти способ борьбы
со страшной системой, уничтожающей её близких. Кто из них на очереди? Она узнаёт
всё больше страшных подробностей, стоящих за кажущимся порядком, и уже не может
не видеть, что в её мире пора что-то менять. Но главное в этой борьбе — справиться
с расколом, который враг порождает в её собственной душе...
Качество видео: HDRip
Формат видео: AVI
Vidео: XviD, 688x288 (2.40:1), 23.976 fps, ~740 kbps avg, 0.156 bit/pixel
Аudiо: МР3, 128 kbps (CBR), 2 ch (Stereo), 48.0 KHz (16 bits) MediaInfo
ОбщееПолное имя : R:\Insurgent_2015_HDRip_[***].aviФормат : AVIФормат/Информация : Audio Video InterleaveРазмер файла : 746 МбайтПродолжительность : 1 ч. 59 м.Общий поток : 877 Кбит/секПрограмма кодирования : VirtualDubModRus 1.5.10.2 (build 2542/release)Библиотека кодирования : VirtualDubMod build 2542/release
ВидеоИдентификатор : 0Формат : MPEG-4 VisualПрофиль формата : Advanced Simple@L5Параметр BVOP формата : 1Параметр QPel формата : НетПараметр GMC формата : Без точки переходаПараметр матрицы формата : ВыборочнаяИдентификатор кодека : DX50Идентификатор кодека/Подсказка : DivX 5Продолжительность : 1 ч. 59 м.Битрейт : 740 Кбит/секШирина : 688 пикселейВысота : 288 пикселейСоотношение сторон : 2,40:1Частота кадров : 23,976 кадра/секЦветовое пространство : YUVСубдискретизация насыщенности : 4:2:0Битовая глубина : 8 битТип развёртки : ПрогрессивнаяМетод сжатия : С потерямиБит/(Пиксели*Кадры) : 0.156Размер потока : 630 Мбайт (84%)Библиотека кодирования : XviD 73
АудиоИдентификатор : 1Формат : MPEG AudioВерсия формата : Version 1Профиль формата : Layer 3Идентификатор кодека : 55Идентификатор кодека/Подсказка : MP3Продолжительность : 1 ч. 58 м.Вид битрейта : ПостоянныйБитрейт : 128 Кбит/секКаналы : 2 каналаЧастота : 48,0 КГцМетод сжатия : С потерямиРазмер потока : 109 Мбайт (15%)Выравнивание : Соединение по промежуткамПродолжительность промежутка : 42 мс. (1,00 видеокадр)Время предзагрузки промежутка : 504 мс.Библиотека кодирования : LAMELAME_MAJOR_VERSI
Скриншот c названием фильма Скриншоты [url=http://***/forum/viewtopic.php?t=4966381]Музыка из фильма[/url]
Раздача: По возможности!!!
Скачать

Скачать торрент!

Как скачивать? · Что такое торрент? · Рейтинг и ограничения

Сайт не распространяет и не хранит электронные версии произведений, а лишь предоставляет доступ к создаваемому пользователями каталогу ссылок на торрент-файлы, которые содержат только списки хеш-сумм

[Профиль] [ЛС]
Показать сообщения:    
Ответить на тему

Текущее время: Сегодня 18:10

Часовой пояс: GMT + 4



Вы не можете начинать темы
Вы не можете отвечать на сообщения
Вы не можете редактировать свои сообщения
Вы не можете удалять свои сообщения
Вы не можете голосовать в опросах
Вы не можете прикреплять файлы к сообщениям
Вы не можете скачивать файлы