3 сердца / 3 coeurs (Бенуа Жако / Benoît Jacquot) [2014, Франция, Германия, Бельгия, драма, BDRip 720p] Dub (iTunes) + Sub Eng + Original Fre

Ответить на тему
 
Автор Сообщение

user ®

Стаж: 7 лет 7 месяцев

Сообщений: 20008

Пост Пост: #1 от 11-Авг-2015 19:33

[Цитировать]

3 сердца / 3 coeurs
Страна: Франция, Германия, Бельгия
Студия: Rectangle Productions, Wild Bunch, Pandora Filmproduktion
Жанр: драма
Год выпуска: 2014
Продолжительность: 01:48:27
Перевод: Профессиональный (дублированный) iTunes
Cубтитры: английские
Оригинальная аудиодорожка: французский
Режиссер: Бенуа Жако / Benoît Jacquot
В ролях: Бенуа Пульворд, Шарлотта Генсбур, Кьяра Мастроянни, Катрин Денёв, Андре Маркон, Патрик Милле, Седрик Виейра, Тома Доре ,Френсис Леплей, Жан-Луис Кроке
Описание: Опоздав на обратный поезд в Париж, ночью в провинциальном городе Марк встречает Сильви. Они бродят по улицам до утра, разговаривают обо всем кроме них самих. Редкая гармония. Марк садится на первый поезд и договаривается с Сильви о встрече в Париже через несколько дней. Они ничего не знают друг о друге, но это не просто игра. Сильви приходит на встречу, а Марк, к сожалению, нет. Он ищет её и встречает другую женщину, Софи, не зная о том, что это сестра Сильви.
Доп. информация: За предоставленный Blu-Ray диск благодарность L'

Исходник: 3 coeurs 2014 1080p Blu-ray AVC DTS-HD MA 5.1-UNRELiABLE
Тип релиза: BDRip 720p
Контейнер: MKV
Видео: MPEG-4 AVC, 6518 Кбит/с, 1280x534, 24.000 fps
Аудио: Rus, AC3, 384 kb/s (6 ch), 48 kHz
Аудио 2: Fre, DTS, 1510 kb/s (6 ch), 48 kHz
Формат субтитров: softsub (SRT)
MediaInfo
x264 [info]: frame I:861 Avg QP:12.92 size:130514
x264 [info]: frame P:32168 Avg QP:14.46 size: 60997
x264 [info]: frame B:123211 Avg QP:15.73 size: 27321
Format : Matroska
Format version : Version 4 / Version 2
File size : 6.50 GiB
Duration : 1h 48mn
Overall bit rate : 8 582 Kbps
Movie name : 3 сердца. (Tonik)
Encoded date : UTC 2015-08-06 14:33:32
Writing application : mkvmerge v7.1.0 ('Good Love') 64bit built on Jul 27 2014 13:06:55
Writing library : libebml v1.3.0 + libmatroska v1.4.1
_STATISTICS_WRITING_APP : mkvmerge v7.1.0 ('Good Love') 64bit built on Jul 27 2014 13:06:55
_STATISTICS_WRITING_DATE_UTC : 2015-08-06 14:33:32
_STATISTICS_TAGS : BPS DURATION NUMBER_OF_FRAMES NUMBER_OF_BYTES
DURATION : 01:48:28.768000000
NUMBER_OF_FRAMES : 203399
NUMBER_OF_BYTES : 312420864
Video
ID : 1
Format : AVC
Format/Info : Advanced Video Codec
Format profile : High@L4.1
Format settings, CABAC : Yes
Format settings, ReFrames : 12 frames
Codec ID : V_MPEG4/ISO/AVC
Duration : 1h 48mn
Bit rate : 6 518 Kbps
Width : 1 280 pixels
Height : 534 pixels
Display aspect ratio : 2.40:1
Frame rate mode : Constant
Frame rate : 24.000 fps
Color space : YUV
Chroma subsampling : 4:2:0
Bit depth : 8 bits
Scan type : Progressive
Bits/(Pixel*Frame) : 0.397
Stream size : 4.94 GiB (76%)
Title : Tonik
Writing library : x264 core 148 r2579 73ae2d1
Encoding settings : cabac=1 / ref=12 / deblock=1:-3:-3 / analyse=0x3:0x133 / me=umh / subme=11 / psy=1 / psy_rd=1.00:0.00 / mixed_ref=1 / me_range=32 / chroma_me=1 / trellis=2 / 8x8dct=1 / cqm=0 / deadzone=21,11 / fast_pskip=0 / chroma_qp_offset=-2 / threads=12 / lookahead_threads=3 / sliced_threads=0 / nr=0 / decimate=1 / interlaced=0 / bluray_compat=0 / constrained_intra=0 / bframes=10 / b_pyramid=2 / b_adapt=2 / b_bias=0 / direct=1 / weightb=1 / open_gop=0 / weightp=2 / keyint=250 / keyint_min=24 / scenecut=40 / intra_refresh=0 / rc=crf / mbtree=0 / crf=15.8 / qcomp=0.60 / qpmin=0 / qpmax=69 / qpstep=4 / ip_ratio=1.40 / pb_ratio=1.30 / aq=1:1.00
Language : English
Default : Yes
Forced : No
_STATISTICS_WRITING_APP : mkvmerge v7.1.0 ('Good Love') 64bit built on Jul 27 2014 13:06:55
_STATISTICS_WRITING_DATE_UTC : 2015-08-06 14:33:32
_STATISTICS_TAGS : BPS DURATION NUMBER_OF_FRAMES NUMBER_OF_BYTES
DURATION : 01:48:30.000000000
NUMBER_OF_FRAMES : 156240
NUMBER_OF_BYTES : 5440758795
Audio #1
ID : 2
Format : AC-3
Format/Info : Audio Coding 3
Mode extension : CM (complete main)
Format settings, Endianness : Big
Codec ID : A_AC3
Duration : 1h 48mn
Bit rate mode : Constant
Bit rate : 384 Kbps
Channel(s) : 6 channels
Channel positions : Front: L C R, Side: L R, LFE
Sampling rate : 48.0 KHz
Bit depth : 16 bits
Compression mode : Lossy
Stream size : 298 MiB (4%)
Title : iTunes
Language : Russian
Default : Yes
Forced : No
Audio #2
ID : 3
Format : DTS
Format/Info : Digital Theater Systems
Mode : 16
Format settings, Endianness : Big
Codec ID : A_DTS
Duration : 1h 48mn
Bit rate mode : Constant
Bit rate : 1 509 Kbps
Channel(s) : 6 channels
Channel positions : Front: L C R, Side: L R, LFE
Sampling rate : 48.0 KHz
Bit depth : 24 bits
Compression mode : Lossy
Stream size : 1.14 GiB (18%)
Language : French
Default : No
Forced : No
Text
ID : 4
Format : UTF-8
Codec ID : S_TEXT/UTF8
Codec ID/Info : UTF-8 Plain Text
Language : English
Default : No
Forced : No
Скриншоты
Скачать

Скачать торрент!

Как скачивать? · Что такое торрент? · Рейтинг и ограничения

Сайт не распространяет и не хранит электронные версии произведений, а лишь предоставляет доступ к создаваемому пользователями каталогу ссылок на торрент-файлы, которые содержат только списки хеш-сумм

[Профиль] [ЛС]
Показать сообщения:    
Ответить на тему

Текущее время: Сегодня 04:28

Часовой пояс: GMT + 4



Вы не можете начинать темы
Вы не можете отвечать на сообщения
Вы не можете редактировать свои сообщения
Вы не можете удалять свои сообщения
Вы не можете голосовать в опросах
Вы не можете прикреплять файлы к сообщениям
Вы не можете скачивать файлы