Чумовые боты / Kinky Boots (Джулиан Джаррольд / Julian Jarrold) [2005, США, Великобритания, драма, комедия, WEB-DL 720p] DVO + Sub Rus, Eng + Original Eng

Ответить на тему
 
Автор Сообщение

user ®

Стаж: 7 лет 7 месяцев

Сообщений: 20008

Пост Пост: #1 от 11-Авг-2015 19:33

[Цитировать]

Чумовые боты / Kinky Boots
Страна: США, Великобритания
Студия: Harbour Pictures, Miramax Films, Price Productions
Жанр: драма, комедия
Год выпуска: 2005
Продолжительность: 01:46:45
Перевод: Профессиональный (двухголосый закадровый)
Cубтитры: русские, английские
Оригинальная аудиодорожка: английский
Режиссер: Джулиан Джаррольд / Julian Jarrold
В ролях: Джоэл Эдгертон, Чиветель Эджиофор, Сара-Джейн Поттс, Ник Фрост, Линда Бэссет, Джемайма Рупер, Роберт Пью, Ивэн Хупер, Стивен Маркус, Мона Хэммонд
Описание: Чарли Прайс всегда был записным неудачником — неудивительно, что именно ему суждено было довести до ручки существовавший десятилетиями семейный бизнес — обувную фабрику. Крах предприятия, не выдерживающего конкуренции с современными заводами, неминуем.
Но именно в этот момент происходит чудо, которого бедняга уже и не ждал. Причем, чудо в перьях. Буквально! Оно появляется на пороге Чарли в образе звезды кабаре Саймона, здоровенного чернокожего певца-трансвестита, обожающего вычурные наряды.
Наглый как танк и обладающий весьма эксцентричным вкусом, Саймон (также известный под творческим псевдонимом Лола) и его коллеги нуждаются в большой партии диковинной сценической обуви вроде розовых сапог на огромных каблуках. И Чарли оказывается единственным, кто способен выполнить этот странный заказ…


Sample
Тип релиза: WEB-DL 720p
Контейнер: MKV
Видео: MPEG4 AVC Video, H264, 16:9, 1280x530, 23.976 fps, 4054 kbps
Аудио: Russian (AC3, 2 ch, 192 kbps, 16 bits, 48.0 KHz) - DVO
Аудио 2: English (AC3, 6 ch, 448 kbps, 16 bits, 48.0 KHz) - оригинал
Формат субтитров: softsub (SRT)

MediaInfo
General
Unique ID : 202485472071428958935099506054486140163 (0x9855488CAD8D9572B1FAEB7FB3A1A503)
Complete name : K:\Kinky Boots 2005 WEB-DL 720p.mkv
Format : Matroska
Format version : Version 4 / Version 2
File size : 3.57 GiB
Duration : 1h 46mn
Overall bit rate : 4 789 Kbps
Encoded date : UTC 2015-08-06 17:55:24
Writing application : mkvmerge v6.1.0 ('Old Devil') built on Mar 2 2013 14:32:37
Writing library : libebml v1.3.0 + libmatroska v1.4.0
Video
ID : 1
Format : AVC
Format/Info : Advanced Video Codec
Format profile : Main@L3.1
Format settings, CABAC : No
Format settings, ReFrames : 2 frames
Codec ID : V_MPEG4/ISO/AVC
Duration : 1h 46mn
Bit rate : 4 054 Kbps
Width : 1 280 pixels
Height : 530 pixels
Display aspect ratio : 2.40:1
Frame rate mode : Constant
Frame rate : 23.976 fps
Color space : YUV
Chroma subsampling : 4:2:0
Bit depth : 8 bits
Scan type : Progressive
Bits/(Pixel*Frame) : 0.249
Stream size : 3.02 GiB (85%)
Language : English
Default : Yes
Forced : No
Color primaries : BT.709
Transfer characteristics : BT.709
Matrix coefficients : BT.709
Audio #1
ID : 2
Format : AC-3
Format/Info : Audio Coding 3
Mode extension : CM (complete main)
Format settings, Endianness : Big
Codec ID : A_AC3
Duration : 1h 46mn
Bit rate mode : Constant
Bit rate : 192 Kbps
Channel count : 2 channels
Channel positions : Front: L R
Sampling rate : 48.0 KHz
Bit depth : 16 bits
Compression mode : Lossy
Stream size : 147 MiB (4%)
Language : Russian
Default : Yes
Forced : Yes
Audio #2
ID : 3
Format : AC-3
Format/Info : Audio Coding 3
Mode extension : CM (complete main)
Format settings, Endianness : Big
Codec ID : A_AC3
Duration : 1h 46mn
Bit rate mode : Constant
Bit rate : 448 Kbps
Channel count : 6 channels
Channel positions : Front: L C R, Side: L R, LFE
Sampling rate : 48.0 KHz
Bit depth : 16 bits
Compression mode : Lossy
Stream size : 342 MiB (9%)
Language : English
Default : No
Forced : No
Text #1
ID : 4
Format : UTF-8
Codec ID : S_TEXT/UTF8
Codec ID/Info : UTF-8 Plain Text
Language : Russian
Default : No
Forced : No
Text #2
ID : 5
Format : UTF-8
Codec ID : S_TEXT/UTF8
Codec ID/Info : UTF-8 Plain Text
Language : English
Default : No
Forced : No
Menu
00:00:00.000 : en:1
00:06:21.000 : en:2
00:11:36.000 : en:3
00:19:13.000 : en:4
00:29:11.000 : en:5
00:36:30.000 : en:6
00:42:55.000 : en:7
00:51:00.000 : en:8
00:58:29.000 : en:9
01:06:57.000 : en:10
01:14:21.000 : en:11
01:24:52.000 : en:12
01:32:15.000 : en:13
01:41:08.000 : en:14
Скриншоты
Скачать

Скачать торрент!

Как скачивать? · Что такое торрент? · Рейтинг и ограничения

Сайт не распространяет и не хранит электронные версии произведений, а лишь предоставляет доступ к создаваемому пользователями каталогу ссылок на торрент-файлы, которые содержат только списки хеш-сумм

[Профиль] [ЛС]
Показать сообщения:    
Ответить на тему

Текущее время: Сегодня 06:24

Часовой пояс: GMT + 4



Вы не можете начинать темы
Вы не можете отвечать на сообщения
Вы не можете редактировать свои сообщения
Вы не можете удалять свои сообщения
Вы не можете голосовать в опросах
Вы не можете прикреплять файлы к сообщениям
Вы не можете скачивать файлы