Батарейки не прилагаются / *batteries not included (Мэттью Роббинс / Matthew Robbins) [1987, США, фантастика, драма, комедия, семейный, WEB-DL 720p] 3x DVO (Премьер Мультимедиа, НТВ+, ОРТ) + AVO (Алексей Михалёв) + Sub Rus, Eng + Original Eng

Ответить на тему
 
Автор Сообщение

user ®

Стаж: 7 лет 7 месяцев

Сообщений: 20008

Пост Пост: #1 от 11-Авг-2015 16:27

[Цитировать]

Батарейки не прилагаются / *batteries not included
Страна: США
Жанр: фантастика, драма, комедия, семейный
Год выпуска: 1987
Продолжительность: 01:46:29
Перевод 1: Профессиональный (двухголосый закадровый) Премьер Мультимедиа
Перевод 2: Профессиональный (двухголосый закадровый) НТВ+
Перевод 3: Профессиональный (двухголосый закадровый) ОРТ
Перевод 4: Авторский (одноголосый закадровый) Алексей Михалёв
Cубтитры: русские, английские
Оригинальная аудиодорожка: английский
Режиссер: Мэттью Роббинс / Matthew Robbins
В ролях: Хьюм Кронин, Джессика Тэнди, Фрэнк МакРей, Элизабет Пенья, Майкл Кармине, Деннис Буцикарис, Том Элдридж, Джейн Хоффман, Джон ДиСанти, Джон Пэнкоу...
Описание: Дом, в котором живут наши герои, подлежит сносу, и горстка домочадцев — пожилая семейная пара Райли, бывший боксер Гарри, молодая пуэрториканка Мариса и художник Мэйсон — отчаянно борются за спасение милых сердцу трущоб.
Беднягам остается надеятся только на чудо, и оно случается: помощь приходит от братьев по разуму. Однажды ночью квартиру Райли посещают неожиданные гости — крохотные НЛО.
Доп. информация:
За запись перевода НТВ+ спасибо xfiles.
За оцифровку VHS с переводом Михалёва спасибо Hunter26.
Перевод ОРТ с раздачи edich2 оцифровал hexagen.
перевод Премьер Мультимедиа с DVD.
Синхронизация переводов - Dreven.
Сэмпл: http://multi-up.com/1061545
Тип релиза: WEB-DL 720p
Контейнер: MKV
Видео: 1280x692 (1.850), 23.976 fps, AVC, ~3970 Kbps, 0.187 bits/pixel
Аудио 1: Russian, 48.0 KHz, AC3, 2 ch, 192 Kbps - Премьер Мультимедиа
Аудио 2: Russian, 48.0 KHz, AC3, 2 ch, 224 Kbps - НТВ+
Аудио 3: Russian, 48.0 KHz, AC3, 2 ch, 192 Kbps - ОРТ
Аудио 4: Russian, 48.0 KHz, AC3, 2 ch, 192 Kbps - Алексей Михалёв
Аудио 5: English, 48.0 KHz, AC3, 6 ch, 384 Kbps

Сравнение
[url=http://***/forum/viewtopic.php?t=1376977]http://***/forum/viewtopic.php?t=1376977[/url]
http://screenshotcomparison.com/comparison/137670/picture:0
MediaInfo
General
Unique ID : 186514492034921512609352231079751116684 (0x8C51627060472D9382657251814EE78C)
Complete name : C:\batteries not included. WEB-DL 720p.mkv
Format : Matroska
Format version : Version 4 / Version 2
File size : 3.91 GiB
Duration : 1h 46mn
Overall bit rate : 5 259 Kbps
Movie name :
Encoded date : UTC 2015-08-06 05:50:31
Writing application : mkvmerge v8.1.0 ('Psychedelic Postcard') 64bit
Writing library : libebml v1.3.1 + libmatroska v1.4.2
DURATION : 01:41:17.575000000
NUMBER_OF_FRAMES : 956
NUMBER_OF_BYTES : 29406
_STATISTICS_WRITING_APP : mkvmerge v8.1.0 ('Psychedelic Postcard') 64bit
_STATISTICS_WRITING_DATE_UT : 2015-08-06 05:50:31
_STATISTICS_TAGS : BPS DURATION NUMBER_OF_FRAMES NUMBER_OF_BYTES
Video
ID : 1
Format : AVC
Format/Info : Advanced Video Codec
Format profile : High@L3.1
Format settings, CABAC : No
Format settings, ReFrames : 2 frames
Codec ID : V_MPEG4/ISO/AVC
Duration : 1h 46mn
Bit rate : 3 970 Kbps
Width : 1 280 pixels
Height : 692 pixels
Display aspect ratio : 1.85:1
Frame rate mode : Constant
Frame rate : 23.976 fps
Color space : YUV
Chroma subsampling : 4:2:0
Bit depth : 8 bits
Scan type : Progressive
Bits/(Pixel*Frame) : 0.187
Stream size : 2.95 GiB (75%)
Language : English
Default : Yes
Forced : No
Color range : Limited
Color primaries : BT.709
Transfer characteristics : BT.709
Matrix coefficients : BT.709
Audio #1
ID : 2
Format : AC-3
Format/Info : Audio Coding 3
Mode extension : CM (complete main)
Format settings, Endianness : Big
Codec ID : A_AC3
Duration : 1h 46mn
Bit rate mode : Constant
Bit rate : 192 Kbps
Channel(s) : 2 channels
Channel positions : Front: L R
Sampling rate : 48.0 KHz
Compression mode : Lossy
Stream size : 146 MiB (4%)
Title : Премьер Мультимедиа
Language : Russian
Default : Yes
Forced : No
Audio #2
ID : 3
Format : AC-3
Format/Info : Audio Coding 3
Mode extension : CM (complete main)
Format settings, Endianness : Big
Codec ID : A_AC3
Duration : 1h 46mn
Bit rate mode : Constant
Bit rate : 224 Kbps
Channel(s) : 2 channels
Channel positions : Front: L R
Sampling rate : 48.0 KHz
Compression mode : Lossy
Stream size : 171 MiB (4%)
Title : НТВ+
Language : Russian
Default : No
Forced : No
Audio #3
ID : 4
Format : AC-3
Format/Info : Audio Coding 3
Mode extension : CM (complete main)
Format settings, Endianness : Big
Codec ID : A_AC3
Duration : 1h 46mn
Bit rate mode : Constant
Bit rate : 192 Kbps
Channel(s) : 2 channels
Channel positions : Front: L R
Sampling rate : 48.0 KHz
Compression mode : Lossy
Stream size : 146 MiB (4%)
Title : ОРТ
Language : Russian
Default : No
Forced : No
Audio #4
ID : 5
Format : AC-3
Format/Info : Audio Coding 3
Mode extension : CM (complete main)
Format settings, Endianness : Big
Codec ID : A_AC3
Duration : 1h 46mn
Bit rate mode : Constant
Bit rate : 192 Kbps
Channel(s) : 2 channels
Channel positions : Front: L R
Sampling rate : 48.0 KHz
Compression mode : Lossy
Stream size : 146 MiB (4%)
Title : Алексей Михалёв
Language : Russian
Default : No
Forced : No
Audio #5
ID : 6
Format : AC-3
Format/Info : Audio Coding 3
Mode extension : CM (complete main)
Format settings, Endianness : Big
Codec ID : A_AC3
Duration : 1h 46mn
Bit rate mode : Constant
Bit rate : 384 Kbps
Channel(s) : 6 channels
Channel positions : Front: L C R, Side: L R, LFE
Sampling rate : 48.0 KHz
Compression mode : Lossy
Stream size : 292 MiB (7%)
Language : English
Default : No
Forced : No
Text #1
ID : 7
Format : UTF-8
Codec ID : S_TEXT/UTF8
Codec ID/Info : UTF-8 Plain Text
Language : Russian
Default : No
Forced : No
Text #2
ID : 8
Format : UTF-8
Codec ID : S_TEXT/UTF8
Codec ID/Info : UTF-8 Plain Text
Language : English
Default : No
Forced : No
Menu
00:00:00.000 : en:1. Main Tiltles
00:03:02.000 : en:2. The Wrecking Crew
00:12:44.000 : en:3. Time to Quit
00:18:17.000 : en:4. Sunset
00:21:46.000 : en:5. Night Visitors
00:29:14.000 : en:6. The Little Guys
00:38:43.000 : en:7. Carlos' Big Shock
00:51:22.000 : en:8. The Big Night
00:57:16.000 : en:9. Back in Business
01:03:29.000 : en:10. The Miracle Cure
01:06:37.000 : en:11. Mr. Lacey
01:09:57.000 : en:12. Alive & Kicking
01:15:31.000 : en:13. The Hatchet Man
01:20:15.000 : en:14. The Lost Saucers
01:26:16.000 : en:15. Letting Go
01:27:55.000 : en:16. The Fire Bomb
01:34:57.000 : en:17. Help From Above
01:41:39.000 : en:18. End Titles
Скриншоты
Скачать

Скачать торрент!

Как скачивать? · Что такое торрент? · Рейтинг и ограничения

Сайт не распространяет и не хранит электронные версии произведений, а лишь предоставляет доступ к создаваемому пользователями каталогу ссылок на торрент-файлы, которые содержат только списки хеш-сумм

[Профиль] [ЛС]
Показать сообщения:    
Ответить на тему

Текущее время: Сегодня 17:26

Часовой пояс: GMT + 4



Вы не можете начинать темы
Вы не можете отвечать на сообщения
Вы не можете редактировать свои сообщения
Вы не можете удалять свои сообщения
Вы не можете голосовать в опросах
Вы не можете прикреплять файлы к сообщениям
Вы не можете скачивать файлы