Американский ниндзя / American Ninja (Сэм Фёрстенберг / Sam Firstenberg) [1985, США, боевик, мелодрама, приключения, BDRip 720p] 2х DVO + Ukr + 4х AVO + Original Eng

Ответить на тему
 
Автор Сообщение

user ®

Стаж: 7 лет 7 месяцев

Сообщений: 20008

Пост Пост: #1 от 11-Авг-2015 16:27

[Цитировать]

-Американский ниндзя / American Ninja
«The Orient created the world's deadliest art. Now there's an American master!»
-- & -- Страна: США
Студия: Cannon Group | Golan-Globus Productions Ltd.
Жанр: боевик, мелодрама, приключения
Год выпуска: 1985
Продолжительность: 01:35:53
Перевод: Профессиональный (двухголосый закадровый) СОЮЗ - Видео
+ Профессиональный (двухголосый закадровый) СТС
+ Авторский (одноголосый закадровый) А. Гаврилов
+ Авторский (одноголосый закадровый) В. Горчаков
+ Авторский (одноголосый закадровый) А. Карповский
+ Авторский (одноголосый закадровый) А. Готлиб
Cубтитры: нет
Оригинальная аудиодорожка: English--Режиссер:
Сэм Фёрстенберг / Sam Firstenberg--В ролях:
Майкл Дудикофф (Pvt. Joe T. Armstrong), Стив Джеймс (Cpl. Curtis Jackson), Джуди Аронсон (Patricia Hickock), Гуч Кук, Джон Фудзиока (Shinyuki), Дон Стюарт (Victor Ortega), Джон ЛаМотта (Rinaldo), Тадаси Ямасита (Black Star Ninja), Филлип Брок (Pvt. Charley Madison), Тони Калдерон (Older Colombian).--Описание:
Джо Армстронг, 18 - летний рядовой филиппинского отряда армии США, сопровождает военный конвой, который подвергается нападению бандитов. В одном из них Джо узнает черного воина - ниндзя. Обороняясь, он инстинктивно начинает использовать технику ниндзюцу. Эта неожиданно проявившаяся способность вызывает подозрение у командира его отряда и остальных солдат. Распутывая паутину темных интриг, Джо остается один в битве с окружающей его коррупцией. В конце концов, в глубине непроходимых джунглей, Джо раскрывает тайну собственного прошлого, тайну, ведущую его к последнему бою со зловещим предводителем Черных Ниндзя.--Download Sample--Тип релиза: BD-Rip 720p | thx: American Ninja 1985 1080p BD-Remux AVC LPCM 2.0-CiNEMATiC
Контейнер: MKV--Видео: 1 280x694 at 23.976 fps, x264 @ L4.1, crf, ~9300 kbps avg
Аудио#1: 48.0 kHz, AC3, 2/0 (L,R) ch, ~192.00 kbps avg | СОЮЗ - Видео
Аудио#2: 48.0 kHz, AC3, 2/0 (L,R) ch, ~192.00 kbps avg | СТС
Аудио#3: 48.0 kHz, AC3, 2/0 (L,R) ch, ~192.00 kbps avg | А. Гаврилов
Аудио#4: 48.0 kHz, DTS, 3/2 (L,C,R,l,r) + LFE ch, ~1509.00 kbps | В. Горчаков
Аудио#5: 48.0 kHz, AC3, 2/0 (L,R) ch, ~192.00 kbps avg | А. Карповский
Аудио#6: 48.0 kHz, AC3, 2/0 (L,R) ch, ~192.00 kbps avg | А. Готлиб
Аудио#7: 48.0 kHz, AC3, 2/0 (L,R) ch, ~192.00 kbps avg | ICTV
Аудио#8: 48.0 kHz, FLAC, 2/0 (L,R) ch, ~753.00 kbps avg | Original
-
-
MI
Общее
Уникальный идентификатор : 230913385487711177567239790796576304066 (0xADB84CE4DB1257CFA6D93657EC72ABC2)
Полное имя : D:\Фильмы\American Ninja.1985.BD-Rip.720p.BluRay.FLAC.x264.6xRus.Ukr.Eng.mkv
Формат : Matroska
Версия формата : Version 4 / Version 2
Размер файла : 8,66 Гбайт
Продолжительность : 1 ч. 35 м.
Режим общего битрейта : Переменный
Общий поток : 12,9 Мбит/сек
Дата кодирования : UTC 2015-08-06 05:29:58
Программа кодирования : mkvmerge v6.1.0 ('Old Devil') built on Mar 4 2013 09:10:42
Библиотека кодирования : libebml v1.3.0 + libmatroska v1.4.0
Attachment : Yes
Видео
Идентификатор : 1
Формат : AVC
Формат/Информация : Advanced Video Codec
Профиль формата : High@L4.1
Параметр CABAC формата : Да
Параметр ReFrames формата : 8 кадров
Идентификатор кодека : V_MPEG4/ISO/AVC
Продолжительность : 1 ч. 35 м.
Ширина : 1280 пикселей
Высота : 694 пикселя
Соотношение сторон : 1,85:1
Режим частоты кадров : Постоянный
Частота кадров : 23,976 кадра/сек
Цветовое пространство : YUV
Субдискретизация насыщенности : 4:2:0
Битовая глубина : 8 бит
Тип развёртки : Прогрессивная
Заголовок : Американский ниндзя / American Ninja 1985 720р Rip by ----->> [B.A.T.U.S.A.Y.]
Библиотека кодирования : x264 core 148 r2579kMod 73ae2d1
Настройки программы : cabac=1 / ref=8 / deblock=1:-3:-3 / analyse=0x3:0x113 / me=umh / subme=11 / psy=1 / fade_compensate=0.00 / psy_rd=1.05:0.00 / mixed_ref=1 / me_range=64 / chroma_me=1 / trellis=2 / 8x8dct=1 / cqm=0 / deadzone=21,11 / fast_pskip=0 / chroma_qp_offset=-2 / threads=6 / lookahead_threads=1 / sliced_threads=0 / nr=0 / decimate=1 / interlaced=0 / bluray_compat=0 / constrained_intra=0 / fgo=0 / bframes=15 / b_pyramid=2 / b_adapt=2 / b_bias=0 / direct=3 / weightb=1 / open_gop=0 / weightp=2 / keyint=230 / keyint_min=23 / scenecut=40 / intra_refresh=0 / rc_lookahead=60 / rc=crf / mbtree=0 / crf=18.3850 / qcomp=0.68 / qpmin=0 / qpmax=69 / qpstep=4 / vbv_maxrate=62500 / vbv_bufsize=78125 / crf_max=0.0 / nal_hrd=none / filler=0 / ip_ratio=1.30 / pb_ratio=1.20 / aq=1:0.63
Язык : English
Default : Нет
Forced : Нет
Аудио #1
Идентификатор : 2
Формат : AC-3
Формат/Информация : Audio Coding 3
Расширение режима : CM (complete main)
Параметр Endianness формата : Big
Идентификатор кодека : A_AC3
Продолжительность : 1 ч. 35 м.
Вид битрейта : Постоянный
Битрейт : 192 Кбит/сек
Каналы : 2 канала
Расположение каналов : Front: L R
Частота : 48,0 КГц
Битовая глубина : 16 бит
Метод сжатия : С потерями
Размер потока : 132 Мбайт (1%)
Заголовок : АС3 2.0 @ 192 kbps - DVO, Союз - Видео
Язык : Russian
Default : Нет
Forced : Нет
Аудио #2
Идентификатор : 3
Формат : AC-3
Формат/Информация : Audio Coding 3
Расширение режима : CM (complete main)
Параметр Endianness формата : Big
Идентификатор кодека : A_AC3
Продолжительность : 1 ч. 35 м.
Вид битрейта : Постоянный
Битрейт : 192 Кбит/сек
Каналы : 2 канала
Расположение каналов : Front: L R
Частота : 48,0 КГц
Битовая глубина : 16 бит
Метод сжатия : С потерями
Размер потока : 132 Мбайт (1%)
Заголовок : АС3 2.0 @ 192 kbps - DVO, СТС
Язык : Russian
Default : Да
Forced : Нет
Аудио #3
Идентификатор : 4
Формат : AC-3
Формат/Информация : Audio Coding 3
Расширение режима : CM (complete main)
Параметр Endianness формата : Big
Идентификатор кодека : A_AC3
Продолжительность : 1 ч. 35 м.
Вид битрейта : Постоянный
Битрейт : 192 Кбит/сек
Каналы : 2 канала
Расположение каналов : Front: L R
Частота : 48,0 КГц
Битовая глубина : 16 бит
Метод сжатия : С потерями
Размер потока : 132 Мбайт (1%)
Заголовок : АС3 2.0 @ 192 kbps - AVO, А. Гаврилов
Язык : Russian
Default : Нет
Forced : Нет
Аудио #4
Идентификатор : 5
Формат : DTS
Формат/Информация : Digital Theater Systems
Режим : 16
Параметр Endianness формата : Big
Идентификатор кодека : A_DTS
Продолжительность : 1 ч. 35 м.
Вид битрейта : Постоянный
Битрейт : 1509 Кбит/сек
Каналы : 2 канала
Расположение каналов : Front: L R
Частота : 48,0 КГц
Битовая глубина : 24 бит
Метод сжатия : С потерями
Размер потока : 1,01 Гбайт (12%)
Заголовок : DTS 5.1 @ 1509 kbps - AVO, В. Горчаков
Язык : Russian
Default : Нет
Forced : Нет
Аудио #5
Идентификатор : 6
Формат : AC-3
Формат/Информация : Audio Coding 3
Расширение режима : CM (complete main)
Параметр Endianness формата : Big
Идентификатор кодека : A_AC3
Продолжительность : 1 ч. 35 м.
Вид битрейта : Постоянный
Битрейт : 192 Кбит/сек
Каналы : 2 канала
Расположение каналов : Front: L R
Частота : 48,0 КГц
Битовая глубина : 16 бит
Метод сжатия : С потерями
Размер потока : 132 Мбайт (1%)
Заголовок : АС3 2.0 @ 192 kbps - VO, А. Карповский
Default : Нет
Forced : Нет
Аудио #6
Идентификатор : 7
Формат : AC-3
Формат/Информация : Audio Coding 3
Расширение режима : CM (complete main)
Параметр Endianness формата : Big
Идентификатор кодека : A_AC3
Продолжительность : 1 ч. 35 м.
Вид битрейта : Постоянный
Битрейт : 192 Кбит/сек
Каналы : 2 канала
Расположение каналов : Front: L R
Частота : 48,0 КГц
Битовая глубина : 16 бит
Метод сжатия : С потерями
Размер потока : 132 Мбайт (1%)
Заголовок : АС3 2.0 @ 192 kbps - VO, А. Готлиб
Язык : Russian
Default : Нет
Forced : Нет
Аудио #7
Идентификатор : 8
Формат : AC-3
Формат/Информация : Audio Coding 3
Расширение режима : CM (complete main)
Параметр Endianness формата : Big
Идентификатор кодека : A_AC3
Продолжительность : 1 ч. 35 м.
Вид битрейта : Постоянный
Битрейт : 192 Кбит/сек
Каналы : 2 канала
Расположение каналов : Front: L R
Частота : 48,0 КГц
Битовая глубина : 16 бит
Метод сжатия : С потерями
Размер потока : 132 Мбайт (1%)
Заголовок : АС3 2.0 @ 192 kbps - DVO, ICTV
Язык : Ukrainian
Default : Нет
Forced : Нет
Аудио #8
Идентификатор : 9
Формат : FLAC
Формат/Информация : Free Lossless Audio Codec
Идентификатор кодека : A_FLAC
Продолжительность : 1 ч. 35 м.
Вид битрейта : Переменный
Каналы : 2 канала
Частота : 48,0 КГц
Битовая глубина : 24 бит
Заголовок : FLAC 2.0 @ 753 kbps - Original
Библиотека кодирования : libFLAC 1.2.1 (UTC 2007-09-17)
Язык : English
Default : Нет
Forced : Нет
log x264
x264 [info]: frame I:1139 Avg QP:19.35 size:121467
x264 [info]: frame P:26277 Avg QP:20.35 size: 70651
x264 [info]: frame B:110512 Avg QP:21.87 size: 43817
x264 [info]: consecutive B-frames: 1.4% 1.5% 4.5% 17.6% 15.2% 38.4% 7.0% 2.3% 4.8% 1.3% 2.3% 2.1% 0.9% 0.3% 0.4% 0.1%
x264 [info]: ref P L0: 38.7% 12.1% 18.7% 9.2% 7.1% 5.6% 4.8% 3.4% 0.5% 0.0%
x264 [info]: ref B L0: 69.5% 13.5% 7.5% 4.1% 3.2% 1.6% 0.6%
x264 [info]: ref B L1: 90.8% 9.2%
x264 [info]: kb/s:9507.99
encoded 137928 frames, 9507.99 kb/s
Скриншоты Comparison
---------------Source---------------Encode---------------




Цитата:
  • Дорожка №4 получена наложением чистого голоса.
  • За оцифровку дороги СОЮЗ Видео спасибо Fikaloid
  • За оцифровку дороги Гаврилова спасибо Kino-profan
  • За оцифровку дороги неизвестного спасибо team_6strun
  • За предоставленный Remux спасибо ilgizik01 и HDClub
Скачать

Скачать торрент!

Как скачивать? · Что такое торрент? · Рейтинг и ограничения

Сайт не распространяет и не хранит электронные версии произведений, а лишь предоставляет доступ к создаваемому пользователями каталогу ссылок на торрент-файлы, которые содержат только списки хеш-сумм

[Профиль] [ЛС]
Показать сообщения:    
Ответить на тему

Текущее время: Сегодня 10:01

Часовой пояс: GMT + 4



Вы не можете начинать темы
Вы не можете отвечать на сообщения
Вы не можете редактировать свои сообщения
Вы не можете удалять свои сообщения
Вы не можете голосовать в опросах
Вы не можете прикреплять файлы к сообщениям
Вы не можете скачивать файлы