Убежище / Hideaway (Бретт Леонард / Brett Leonard) [1995, США, фантастика, ужасы, триллер, WEB-DL 720p] MVO (ТВ3) + MVO + Sub Eng + Original Eng

Ответить на тему
 
Автор Сообщение

user ®

Стаж: 7 лет 7 месяцев

Сообщений: 20008

Пост Пост: #1 от 11-Авг-2015 01:00

[Цитировать]

Убежище / Hideaway
Страна: США
Студия: TriStar Pictures
Жанр: фантастика, ужасы, триллер
Год выпуска: 1995
Продолжительность: 01:45:53
Перевод 1: Профессиональный (многоголосый закадровый) ТВ3
Перевод 2: Профессиональный (многоголосый закадровый)
Cубтитры: английские
Оригинальная аудиодорожка: английский
Режиссер: Бретт Леонард / Brett Leonard
В ролях: Джефф Голдблюм, Кристина Лахти, Алисия Силверстоун, Джереми Систо, Альфред Молина, Рэй Доун Чонг, Кеннет Уэлш, Сьюзи Йоахим, Ширли Бродерик, Том МакБет, Джоэли Коллинз, Роджер Р. Кросс, Майкл Джеймс МакДональд, Дон С. Дэвис, Ребекка Тулан, Хиро Канагава, Джейми Нокс, Норма Жан Уик, Тиффани Фостер, Мара Дуронслет, Айрис Куинн, Наташа Морли, Сара Стрэйндж.
Описание: Антиквар Хэтч Харрисон вместе с женой и дочерью попадает в страшную автомобильную аварию. Жена и дочь остаются живы. Два часа врачи отчаянно борятся за Хэтча и доктор Надбер возвращает его к жизни через 20 минут после клинической смерти. Но после выздоровления с Харрисоном начинает происходить что-то странное: его преследуют галлюцинации - видения изощренных убийств, жертвой одного из которых должна стать его дочь Реджина. Сообщения о пропавших девушках появляются в газетах, но тел не находят. Пытаясь предотвратить смерть Реджины, Хэтч сталкивается с потусторонними силами, властно вторгающимися в реальную жизнь через дверь, приоткрытую доктором Надбером, сын которого покончил собой, принеся себя в жертву Сатане
II Сэмпл II IMDB II
Тип релиза: WEB-DL 720p (Hideaway.1995.720p.WEB-DL.DD5.1.H264-FGT)
Контейнер: MKV
Видео: AVC / 1280x538 / 2.38:1 / 23.976fps / Bit rate 3897Kbps
Аудио 1: AC3 / 48.0KHz / 2ch. / 192kbps / rus / mvo / ТВ3
Аудио 2: AC3 / 48.0KHz / 2ch. / 192kbps / rus / mvo
Аудио 3: AC3 / 48.0KHz / 6ch. / 384kbps / eng
Формат субтитров: softsub (SRT)
MediaInfo
Общее
Уникальный идентификатор : 218121352960254732637298941121730260520 (0xA418A4FF1BAEAA84A09A61CB9CD12E28)
Полное имя : G:\!!!_torrent\Hideaway.1995.WEB-DL.720p_by_vedigo.mkv
Формат : Matroska
Версия формата : Version 4 / Version 2
Размер файла : 3,52 Гбайт
Продолжительность : 1 ч. 45 м.
Общий поток : 4760 Кбит/сек
Дата кодирования : UTC 2015-08-06 01:57:52
Программа кодирования : mkvmerge v8.2.0 ('World of Adventure') 64bit
Библиотека кодирования : libebml v1.3.1 + libmatroska v1.4.2
DURATION : 01:45:21.480000000
NUMBER_OF_FRAMES : 1188
NUMBER_OF_BYTES : 34428
_STATISTICS_WRITING_APP : mkvmerge v8.2.0 ('World of Adventure') 64bit
_STATISTICS_WRITING_DATE_UTC : 2015-08-06 01:57:52
_STATISTICS_TAGS : BPS DURATION NUMBER_OF_FRAMES NUMBER_OF_BYTES
Видео
Идентификатор : 1
Формат : AVC
Формат/Информация : Advanced Video Codec
Профиль формата : Main@L3.1
Параметр CABAC формата : Нет
Параметр ReFrames формата : 2 кадра
Идентификатор кодека : V_MPEG4/ISO/AVC
Продолжительность : 1 ч. 45 м.
Битрейт : 3897 Кбит/сек
Ширина : 1280 пикселей
Высота : 538 пикселей
Соотношение сторон : 2,40:1
Режим частоты кадров : Постоянный
Частота кадров : 23,976 кадра/сек
Цветовое пространство : YUV
Субдискретизация насыщенности : 4:2:0
Битовая глубина : 8 бит
Тип развёртки : Прогрессивная
Бит/(Пиксели*Кадры) : 0.236
Размер потока : 2,88 Гбайт (82%)
Заголовок : Hideaway.1995.WEB-DL.720p_by_vedigo
Default : Да
Forced : Нет
Цветовой диапазон : Limited
Основные цвета : BT.709
Характеристики трансфера : BT.709
Коэффициенты матрицы : BT.709
Аудио #1
Идентификатор : 2
Формат : AC-3
Формат/Информация : Audio Coding 3
Расширение режима : CM (complete main)
Параметр Endianness формата : Big
Идентификатор кодека : A_AC3
Продолжительность : 1 ч. 45 м.
Вид битрейта : Постоянный
Битрейт : 192 Кбит/сек
Каналы : 2 канала
Расположение каналов : Front: L R
Частота : 48,0 КГц
Метод сжатия : С потерями
Размер потока : 145 Мбайт (4%)
Заголовок : MVO @ ТВ3
Язык : Russian
Default : Да
Forced : Нет
Аудио #2
Идентификатор : 3
Формат : AC-3
Формат/Информация : Audio Coding 3
Расширение режима : CM (complete main)
Параметр Endianness формата : Big
Идентификатор кодека : A_AC3
Продолжительность : 1 ч. 45 м.
Вид битрейта : Постоянный
Битрейт : 192 Кбит/сек
Каналы : 2 канала
Расположение каналов : Front: L R
Частота : 48,0 КГц
Метод сжатия : С потерями
Размер потока : 145 Мбайт (4%)
Заголовок : MVO
Язык : Russian
Default : Нет
Forced : Нет
Аудио #3
Идентификатор : 4
Формат : AC-3
Формат/Информация : Audio Coding 3
Расширение режима : CM (complete main)
Параметр Endianness формата : Big
Идентификатор кодека : A_AC3
Продолжительность : 1 ч. 45 м.
Вид битрейта : Постоянный
Битрейт : 384 Кбит/сек
Каналы : 6 каналов
Расположение каналов : Front: L C R, Side: L R, LFE
Частота : 48,0 КГц
Метод сжатия : С потерями
Размер потока : 291 Мбайт (8%)
Заголовок : original
Язык : English
Default : Нет
Forced : Нет
Текст
Идентификатор : 5
Формат : UTF-8
Идентификатор кодека : S_TEXT/UTF8
Идентификатор кодека/Информация : UTF-8 Plain Text
Заголовок : subtitle eng
Язык : English
Default : Нет
Forced : Нет
Меню
00:00:00.000 : en:Start
00:05:45.000 : en:Harrison Family
00:10:02.000 : en:Sideswiped
00:12:11.000 : en:Drowned
00:14:48.000 : en:Hatch crosses over
00:22:27.000 : en:Violent vision
00:28:03.000 : en:Manhunt Launched
00:29:55.000 : en:Harrison's Antiques
00:33:41.000 : en:Another violent vision
00:36:26.000 : en:Lagoon Drive
00:39:37.000 : en:Visions of Regina
00:45:04.000 : en:Zoe
00:46:47.000 : en:Vassago's hideaway
00:50:56.000 : en:Blue Skies Motel
00:56:50.000 : en:Morton Redlow
00:59:32.000 : en:Rose Orwetto
01:06:37.000 : en:Vassago visits Rose
01:10:36.000 : en:Room 107
01:16:36.000 : en:Jeremy on tape
01:19:10.000 : en:With Marian
01:24:11.000 : en:Kidnapping Regina
01:26:50.000 : en:Burning vision
01:28:26.000 : en:Wonderland
01:30:26.000 : en:Land of the Dead
01:31:29.000 : en:Blinded by the light
01:34:11.000 : en:Fighting for Regina
01:36:51.000 : en:Powers of Light & Dark
01:44:00.000 : en:Alternate Ending
Скриншоты
Скачать

Скачать торрент!

Как скачивать? · Что такое торрент? · Рейтинг и ограничения

Сайт не распространяет и не хранит электронные версии произведений, а лишь предоставляет доступ к создаваемому пользователями каталогу ссылок на торрент-файлы, которые содержат только списки хеш-сумм

[Профиль] [ЛС]
Показать сообщения:    
Ответить на тему

Текущее время: Сегодня 13:50

Часовой пояс: GMT + 4



Вы не можете начинать темы
Вы не можете отвечать на сообщения
Вы не можете редактировать свои сообщения
Вы не можете удалять свои сообщения
Вы не можете голосовать в опросах
Вы не можете прикреплять файлы к сообщениям
Вы не можете скачивать файлы