Четверо отчаянных / Gang (Мазхар Кхан / Mazhar Khan) [2000, Индия, Боевик, драма, DVDRip] DVO (Арена)

Ответить на тему
 
Автор Сообщение

user ®

Стаж: 12 лет

Сообщений: 15092

Пост Пост: #1 от 10-Авг-2015 18:48

[Цитировать]

Четверо отчаянных / Gang
Страна: Индия
Жанр: Боевик, драма
Год выпуска: 2000
Продолжительность: 02:46:57
Перевод: Любительский (двухголосый закадровый) Арена
Cубтитры: нет
Режиссер: Мазхар Кхан / Mazhar Khan
В ролях: Джеки Шрофф, Джухи Чавла, Нана Патекар, Кумар Гаурав, Тинну Ананд, Гульшан Гровер, Джавед Джеффри, Дипак Ширке, Далип Тахил, Раза Мурад
Описание: Четверо друзей уезжают из деревни и направляются в Бомбей в поисках работы. Они живут в лачуге и мечтают о достойной жизни. Однажды им крупно повезло - они предотвращают покушение на одного влиятельного политика, и тот, в свою очередь, обещает им хорошую работу и свое покровительство. Главари преступного мира решают отомстить отчаянной четверке, сорвавшей их планы и начинают охоту на их беззащитных родственников.
Доп. информация: Релиз: Кинозал
Сведение звука: oktober (Спасибо!)
Сэмпл: http://multi-up.com/1061992
Качество видео: DVDRip
Формат видео: AVI
Видео: XviD build 50, 640x336 (1.90:1), 23.976 fps, 1059 kbps avg
Аудио: MPEG Layer 3, 48 kHz, 2/0 (L,R) ch, 192.00 kbps
MediaInfo
General
Complete name : F:\Chetvero.Otchayannih.2000.DVDRip.XviD.oktober.avi
Format : AVI
Format/Info : Audio Video Interleave
File size : 1.47 GiB
Duration : 2h 46mn
Overall bit rate : 1 261 Kbps
Writing application : VirtualDubMod 1.5.10.2 (build 2540/release)
Writing library : VirtualDubMod build 2540/release
Video
ID : 0
Format : MPEG-4 Visual
Format profile : AdvancedSimple@L5
Format settings, BVOP : Yes
Format settings, QPel : No
Format settings, GMC : No warppoints
Format settings, Matrix : Default (MPEG)
Codec ID : XVID
Codec ID/Hint : XviD
Duration : 2h 46mn
Bit rate : 1 060 Kbps
Width : 640 pixels
Height : 336 pixels
Display aspect ratio : 1.905
Frame rate : 23.976 fps
Resolution : 24 bits
Colorimetry : 4:2:0
Scan type : Progressive
Bits/(Pixel*Frame) : 0.206
Stream size : 1.24 GiB (84%)
Writing library : XviD 1.2.1 (UTC 2008-12-04)
Audio
ID : 1
Format : MPEG Audio
Format version : Version 1
Format profile : Layer 3
Codec ID : 55
Codec ID/Hint : MP3
Duration : 2h 46mn
Bit rate mode : Constant
Bit rate : 192 Kbps
Channel(s) : 2 channels
Sampling rate : 48.0 KHz
Resolution : 16 bits
Stream size : 229 MiB (15%)
Alignment : Aligned on interleaves
Interleave, duration : 42 ms (1.00 video frame)
Interleave, preload duration : 504 ms
Writing library : LAME3.97
Скриншоты
Скачать

Скачать торрент! Четверо отчаянных / Gang (Мазхар Кхан / Mazhar Khan) [2000, Индия, Боевик, драма, DVDRip] DVO (Арена)

Как скачивать? · Что такое торрент? · Рейтинг и ограничения

Сайт не распространяет и не хранит электронные версии произведений, а лишь предоставляет доступ к создаваемому пользователями каталогу ссылок на торрент-файлы, которые содержат только списки хеш-сумм

[Профиль] [ЛС]
Показать сообщения:    
Ответить на тему

Текущее время: Сегодня 14:51

Часовой пояс: GMT + 4



Вы не можете начинать темы
Вы не можете отвечать на сообщения
Вы не можете редактировать свои сообщения
Вы не можете удалять свои сообщения
Вы не можете голосовать в опросах
Вы не можете прикреплять файлы к сообщениям
Вы не можете скачивать файлы