Весь я / Моё второе Я / All of Me (Карл Райнер / Carl Reiner) [1984, США, комедия, WEB-DL 720p] 2xDVO + 2xAVO + Sub Eng + Original Eng

Ответить на тему
 
Автор Сообщение

user ®

Стаж: 7 лет 7 месяцев

Сообщений: 20008

Пост Пост: #1 от 10-Авг-2015 18:48

[Цитировать]

Моё второе Я / All of Me
-Страна: США
Жанр: комедия
Год выпуска: 1984
Продолжительность: 01:31:41-Перевод 1: Профессиональный (двухголосый закадровый) Петербург-5 канал
Перевод 2: Профессиональный (двухголосый закадровый)
Перевод 3: Авторский (одноголосый закадровый) Михалёв
Перевод 4: Авторский (одноголосый закадровый) Санаев
Cубтитры: английские
Оригинальная аудиодорожка: английский-Режиссер: Карл Райнер / Carl Reiner-В ролях: Стив Мартин, Лили Томлин, Виктория Теннант, Мэдолин Смит-Осборн, Ричард Либертини, Сельма Даймонд, Джейсон Бернард, Дэна Элкар, Гэйлард Сартэйн, Эрик Кристмас-Описание:
Безумно богатая и очень капризная Эдвина Катуотер, чувствуя приближение смерти, решает воспользоваться услугами тибетского чудотворца и переместить свою душу в более молодое тело своей горничной. Проведя много лет в инвалидном кресле, она жаждет наверстать упущенное! Но во время таинства реинкарнации по нелепой случайности душа Эдвины попадает в тело адвоката Роджера Кобба, которого она невзлюбила с первой же встречи. Теперь правая часть тела принадлежит Эдвине, а Роджеру осталась левая. Только бог знает, что из этого может получится…-Сэмпл: Скачать-Тип релиза: WEB-DL 720p
Контейнер: MKV-Видео: 1280x690 (1.85:1); 3 928 Kbps; 24.000 fps; 0.189 bpp
Аудио 1: Russian; AC3; 48.0 KHz; 2ch; 192 Kbps DVO Петербург-5 канал
Аудио 2: Russian; AC3; 48.0 KHz; 2ch; 192 Kbps DVO
Аудио 3: Russian; AC3; 48.0 KHz; 2ch; 192 Kbps AVO Михалёв
Аудио 4: Russian; AC3; 48.0 KHz; 2ch; 192 Kbps AVO Санаев
Аудио 5: English; AAC; 48.0 KHz; 2ch; 160 Kbps
MediaInfo
Format : Matroska
Format version : Version 4 / Version 2
File size : 3.15 GiB
Duration : 1h 31mn
Overall bit rate : 4 916 Kbps
Encoded date : UTC 2015-08-05 14:33:00
Writing application : mkvmerge v8.1.0 ('Psychedelic Postcard') 64bit
Writing library : libebml v1.3.1 + libmatroska v1.4.2
Attachements : poster.jpg
DURATION : 01:31:25.664000000
NUMBER_OF_FRAMES : 171427
NUMBER_OF_BYTES : 131655936
_STATISTICS_WRITING_APP : mkvmerge v8.1.0 ('Psychedelic Postcard') 64bit
_STATISTICS_WRITING_DATE_UTC : 2015-08-05 14:33:00
_STATISTICS_TAGS : BPS DURATION NUMBER_OF_FRAMES NUMBER_OF_BYTES
Video
ID : 1
Format : AVC
Format/Info : Advanced Video Codec
Format profile : High@L3.1
Format settings, CABAC : No
Format settings, ReFrames : 2 frames
Codec ID : V_MPEG4/ISO/AVC
Duration : 1h 31mn
Width : 1 280 pixels
Height : 690 pixels
Display aspect ratio : 1.85:1
Frame rate mode : Constant
Frame rate : 24.000 fps
Color space : YUV
Chroma subsampling : 4:2:0
Bit depth : 8 bits
Scan type : Progressive
Language : English
Default : Yes
Forced : No
Color primaries : BT.709
Transfer characteristics : BT.709
Matrix coefficients : BT.709
Audio #1
ID : 2
Format : AC-3
Format/Info : Audio Coding 3
Mode extension : CM (complete main)
Format settings, Endianness : Big
Codec ID : A_AC3
Duration : 1h 31mn
Bit rate mode : Constant
Bit rate : 192 Kbps
Channel(s) : 2 channels
Channel positions : Front: L R
Sampling rate : 48.0 KHz
Bit depth : 16 bits
Compression mode : Lossy
Stream size : 126 MiB (4%)
Title : DVO 5 Канал
Language : Russian
Default : Yes
Forced : No
Audio #2
ID : 3
Format : AC-3
Format/Info : Audio Coding 3
Mode extension : CM (complete main)
Format settings, Endianness : Big
Codec ID : A_AC3
Duration : 1h 31mn
Bit rate mode : Constant
Bit rate : 192 Kbps
Channel(s) : 2 channels
Channel positions : Front: L R
Sampling rate : 48.0 KHz
Bit depth : 16 bits
Compression mode : Lossy
Stream size : 126 MiB (4%)
Title : DVO
Language : Russian
Default : No
Forced : No
Audio #3
ID : 4
Format : AC-3
Format/Info : Audio Coding 3
Mode extension : CM (complete main)
Format settings, Endianness : Big
Codec ID : A_AC3
Duration : 1h 31mn
Bit rate mode : Constant
Bit rate : 192 Kbps
Channel(s) : 2 channels
Channel positions : Front: L R
Sampling rate : 48.0 KHz
Bit depth : 16 bits
Compression mode : Lossy
Stream size : 126 MiB (4%)
Title : AVO Михалёв
Language : Russian
Default : No
Forced : No
Audio #4
ID : 5
Format : AC-3
Format/Info : Audio Coding 3
Mode extension : CM (complete main)
Format settings, Endianness : Big
Codec ID : A_AC3
Duration : 1h 31mn
Bit rate mode : Constant
Bit rate : 192 Kbps
Channel(s) : 2 channels
Channel positions : Front: L R
Sampling rate : 48.0 KHz
Bit depth : 16 bits
Compression mode : Lossy
Stream size : 126 MiB (4%)
Title : AVO Санаев
Language : Russian
Default : No
Forced : No
Audio #5
ID : 6
Format : AAC
Format/Info : Advanced Audio Codec
Format profile : LC
Codec ID : A_AAC
Duration : 1h 31mn
Channel(s) : 2 channels
Channel positions : Front: L R
Sampling rate : 48.0 KHz
Compression mode : Lossy
Language : English
Default : No
Forced : No
Text
ID : 7
Format : UTF-8
Codec ID : S_TEXT/UTF8
Codec ID/Info : UTF-8 Plain Text
Language : English
Default : No
Forced : No
Скриншоты
Скачать

Скачать торрент!

Как скачивать? · Что такое торрент? · Рейтинг и ограничения

Сайт не распространяет и не хранит электронные версии произведений, а лишь предоставляет доступ к создаваемому пользователями каталогу ссылок на торрент-файлы, которые содержат только списки хеш-сумм

[Профиль] [ЛС]
Показать сообщения:    
Ответить на тему

Текущее время: Сегодня 22:33

Часовой пояс: GMT + 4



Вы не можете начинать темы
Вы не можете отвечать на сообщения
Вы не можете редактировать свои сообщения
Вы не можете удалять свои сообщения
Вы не можете голосовать в опросах
Вы не можете прикреплять файлы к сообщениям
Вы не можете скачивать файлы