Народ моего деда / Dedemin İnsanları / My Grandfather\'s People (Чаган Ырмак / Çağan Irmak) [2011, Турция, драма, комедия, BDRip 720p] VO + Sub Rus, Eng + Original Tur

Ответить на тему
 
Автор Сообщение

user ®

Стаж: 7 лет 7 месяцев

Сообщений: 20008

Пост Пост: #1 от 10-Авг-2015 15:42

[Цитировать]

Народ моего деда / Dedemin İnsanları / My Grandfather's People
Страна: Турция
Жанр: Драма, комедия
Год выпуска: 2011
Продолжительность: 02:03:50
Перевод 1: Одноголосый закадровый
Перевод 2: Субтитры
Cубтитры: русские, английские, немецкие
Оригинальная аудиодорожка: турецкий
Режиссер: Чаган Ырмак / Çağan Irmak
В ролях: Четин Текиндор (Çetin Tekindor), Дурукан Челиккая (Durukan Çelikkaya), Йигит Озшенер (Yiğit Özşener), Гёкче Бахадыр (Gökçe Bahadır), Зафер Алгёз (Zafer Algöz), Саджиде Ташанер (Sacide Taşaner), Хумейра (Hümeyra), Усхан Чакыр (Ushan Çakır), Мерт Фырат (Mert Fırat), Эзги Мола (Ezgi Mola)
Описание: Драма, вдохновленная детством режиссера, о насильственной миграции между Турцией и Грецией в 1923 году, как это видит десятилетний мальчик. История, рассказанная Чаганом Ырмаком, разворачивается в маленьком посёлке на западе Турции, у берегов Эгейского моря. В более широком смысле это рассказ о больших переменах, произошедших внутри одной семьи и в масштабах целого государства, переданная с уст 10-летнего Озана и его дедушки Мехмета Яваша. Это очень трогательная жизненная драма о любви к ближнему, сочувствии, потерянности души, да и просто - о Человеке.
1 win
Доп. информация: К BDRip 720p, скачанному с забугорного трекера, добавлены русские озвучка и субтитры с [url=http://***/forum/viewtopic.php?t=4470710]этой[/url] раздачи, спасибо viktor_2838.
Используемый софт:
Используемый софт: MKVtool, Subtitle Workshop, BeSweet, Sony Vegas 10
Сэмпл: http://multi-up.com/1061294
Тип релиза: BDRip 720p
Контейнер: MKV
Видео: AVC, 6200 Kbps, 1280 x 544, 24,000 fps
Аудио: Russian (Dolby AC3, 2 ch), 48 kHz, 192 kbps
Аудио 2: Turkish DTS, 1509 Кбит/сек (6 ch), 48 kHz
Формат субтитров: UTF-8, VobSub
MediaInfo
Формат : Matroska
Версия формата : Version 2
Размер файла : 6,85 Гбайт
Продолжительность : 2 ч. 3 м.
Общий поток : 7916 Кбит/сек
Название фильма : Çagan Irmak-Dedemin insanlari (2011)
Дата кодирования : UTC 2015-01-08 13:50:21
Программа кодирования : mkvmerge v4.0.0 ('The Stars were mine') сборка от Jun 6 2010 16:18:42
Библиотека кодирования : libebml v1.0.0 + libmatroska v1.0.0
Видео
Идентификатор : 1
Формат : AVC
Формат/Информация : Advanced Video Codec
Профиль формата : High@L4.1
Параметр CABAC формата : Да
Параметр ReFrames формата : 12 кадров
Идентификатор кодека : V_MPEG4/ISO/AVC
Продолжительность : 2 ч. 3 м.
Битрейт : 6200 Кбит/сек
Ширина : 1280 пикселей
Высота : 544 пикселя
Соотношение сторон : 2,35:1
Режим частоты кадров : Постоянный
Частота кадров : 24,000 кадра/сек
Цветовое пространство : YUV
Субдискретизация насыщенности : 4:2:0
Битовая глубина : 8 бит
Тип развёртки : Прогрессивная
Бит/(Пиксели*Кадры) : 0.371
Размер потока : 5,24 Гбайт (77%)
Библиотека кодирования : x264 core 125 r2200 999b753
Настройки программы : cabac=1 / ref=12 / deblock=1:-3:-3 / analyse=0x3:0x113 / me=umh / subme=11 / psy=1 / psy_rd=1.05:0.00 / mixed_ref=1 / me_range=32 / chroma_me=1 / trellis=2 / 8x8dct=1 / cqm=0 / deadzone=21,11 / fast_pskip=0 / chroma_qp_offset=-2 / threads=12 / lookahead_threads=2 / sliced_threads=0 / nr=0 / decimate=0 / interlaced=0 / bluray_compat=0 / constrained_intra=0 / bframes=6 / b_pyramid=2 / b_adapt=2 / b_bias=0 / direct=3 / weightb=1 / open_gop=0 / weightp=2 / keyint=230 / keyint_min=23 / scenecut=40 / intra_refresh=0 / rc=2pass / mbtree=0 / bitrate=6200 / ratetol=1.0 / qcomp=0.75 / qpmin=0 / qpmax=69 / qpstep=4 / cplxblur=20.0 / qblur=0.5 / ip_ratio=1.40 / pb_ratio=1.30 / aq=1:0.90
Язык : Russian
Default : Нет
Forced : Нет
Основные цвета : BT.709
Характеристики трансфера : BT.709
Коэффициенты матрицы : BT.709
colour_range : Limited
Аудио #1
Идентификатор : 2
Формат : AC-3
Формат/Информация : Audio Coding 3
Расширение режима : CM (complete main)
Параметр Endianness формата : Big
Идентификатор кодека : A_AC3
Продолжительность : 2 ч. 3 м.
Вид битрейта : Постоянный
Битрейт : 192 Кбит/сек
Каналы : 2 канала
Расположение каналов : Front: L R
Частота : 48,0 КГц
Битовая глубина : 16 бит
Метод сжатия : С потерями
Размер потока : 170 Мбайт (2%)
Заголовок : russian AC3, 192 Kbps
Язык : Russian
Default : Да
Forced : Нет
Аудио #2
Идентификатор : 3
Формат : DTS
Формат/Информация : Digital Theater Systems
Режим : 16
Параметр Endianness формата : Big
Идентификатор кодека : A_DTS
Продолжительность : 2 ч. 3 м.
Вид битрейта : Постоянный
Битрейт : 1509 Кбит/сек
Каналы : 6 каналов
Расположение каналов : Front: L C R, Side: L R, LFE
Частота : 48,0 КГц
Битовая глубина : 24 бит
Метод сжатия : С потерями
Задержка видео : 11 мс.
Размер потока : 1,31 Гбайт (19%)
Заголовок : turkish
Язык : Turkish
Default : Нет
Forced : Нет
Текст #1
Идентификатор : 4
Формат : UTF-8
Идентификатор кодека : S_TEXT/UTF8
Идентификатор кодека/Информация : UTF-8 Plain Text
Заголовок : russian
Язык : Russian
Default : Нет
Forced : Нет
Текст #2
Идентификатор : 5
Формат : VobSub
Режим смешивания : zlib
Идентификатор кодека : S_VOBSUB
Идентификатор кодека/Информация : The same subtitle format used on DVDs
Заголовок : english
Язык : English
Default : Нет
Forced : Нет
Текст #3
Идентификатор : 6
Формат : VobSub
Режим смешивания : zlib
Идентификатор кодека : S_VOBSUB
Идентификатор кодека/Информация : The same subtitle format used on DVDs
Заголовок : german
Язык : German
Default : Нет
Forced : Нет
Меню
00:00:00.000 : en:00:00:00.000
00:11:36.208 : en:00:11:36.208
00:20:56.042 : en:00:20:56.042
00:30:19.083 : en:00:30:19.083
00:40:26.875 : en:00:40:26.875
00:49:49.542 : en:00:49:49.542
00:59:28.083 : en:00:59:28.083
01:09:40.375 : en:01:09:40.375
01:19:56.333 : en:01:19:56.333
01:29:56.125 : en:01:29:56.125
01:39:51.625 : en:01:39:51.625
01:52:07.375 : en:01:52:07.375
02:00:10.542 : en:02:00:10.542
Скриншоты
Скачать

Скачать торрент!

Как скачивать? · Что такое торрент? · Рейтинг и ограничения

Сайт не распространяет и не хранит электронные версии произведений, а лишь предоставляет доступ к создаваемому пользователями каталогу ссылок на торрент-файлы, которые содержат только списки хеш-сумм

[Профиль] [ЛС]
Показать сообщения:    
Ответить на тему

Текущее время: Сегодня 15:36

Часовой пояс: GMT + 4



Вы не можете начинать темы
Вы не можете отвечать на сообщения
Вы не можете редактировать свои сообщения
Вы не можете удалять свои сообщения
Вы не можете голосовать в опросах
Вы не можете прикреплять файлы к сообщениям
Вы не можете скачивать файлы