Франц + Полина / Franz + Polina (Михаил Сегал) [2006, драма, военный, DVDRip-AVC]

Ответить на тему
 
Автор Сообщение

user ®

Стаж: 7 лет 7 месяцев

Сообщений: 20008

Пост Пост: #1 от 10-Авг-2015 00:15

[Цитировать]

Франц + Полина
Жанр: драма, военный
Год выпуска: 2006
Продолжительность: 01:58:26
Cубтитры: русские (на немецкую речь)
Режиссёр: Михаил Сегал
В ролях: Адриан Тополь, Светлана Иванова, Андрей Мерзликин, Джульетта Казакевич, Игорь Сигов, Виктор Рыбчинский, Алексей Колокольцев, Виктор Манаев, Анатолий Голуб, Дэнис Тарасенко
Описание: 1943 год. В одной из белорусских деревень останавливается подразделение СС. Вместо того, чтобы уничтожить жителей, эсэсовцы становятся их добрыми и милыми постояльцами. Но успеет ли самый юный из солдат Франц объясниться с Полиной, дочерью своей хозяйки, до того, как поступит новый приказ ?
Рейтинг:
Сэмпл: http://multi-up.com/1061973
Качество видео: [url=http://***/forum/viewtopic.php?t=629972]DVD[/url]Rip-AVC
Формат видео: MKV
Видео: x264, PAL, 1018x552@720x552 (1,85:1), 25 fps, 2754 kbit/s
Аудио: AC3, 48.0 kHz, 448 kbit/s, 6h
Формат субтитров: softsub (SRT)
MediaInfo
Общее
Уникальный идентификатор : 206118766090109211220682282740528051354 (0x9B1107C66A02C43594036002965DF49A)
Полное имя : Франц+Полина_(2006).mkv
Формат : Matroska
Версия формата : Version 4 / Version 2
Размер файла : 2,70 Гбайт
Продолжительность : 1 ч. 58 м.
Общий поток : 3267 Кбит/сек
Дата кодирования : UTC 2015-08-09 18:24:59
Программа кодирования : mkvmerge v8.2.0 ('World of Adventure') 64bit
Библиотека кодирования : libebml v1.3.1 + libmatroska v1.4.2
DURATION : 01:49:04.396000000
NUMBER_OF_FRAMES : 167
NUMBER_OF_BYTES : 7347
_STATISTICS_WRITING_APP : mkvmerge v8.2.0 ('World of Adventure') 64bit
_STATISTICS_WRITING_DATE_UTC : 2015-08-09 18:24:59
_STATISTICS_TAGS : BPS DURATION NUMBER_OF_FRAMES NUMBER_OF_BYTES
Видео
Идентификатор : 1
Формат : AVC
Формат/Информация : Advanced Video Codec
Профиль формата : High@L3.1
Параметр CABAC формата : Да
Параметр ReFrames формата : 11 кадров
Идентификатор кодека : V_MPEG4/ISO/AVC
Продолжительность : 1 ч. 58 м.
Битрейт : 2754 Кбит/сек
Ширина : 720 пикселей
Высота : 552 пикселя
Соотношение сторон : 1,85:1
Соотношение сторон в оригинале : 1,85:1
Режим частоты кадров : Постоянный
Частота кадров : 25,000 кадров/сек
Цветовое пространство : YUV
Субдискретизация насыщенности : 4:2:0
Битовая глубина : 8 бит
Тип развёртки : Прогрессивная
Бит/(Пиксели*Кадры) : 0.277
Размер потока : 2,28 Гбайт (84%)
Библиотека кодирования : x264 core 146 r2538 121396c
Настройки программы : cabac=1 / ref=11 / deblock=1:-2:-1 / analyse=0x3:0x133 / me=umh / subme=10 / psy=1 / psy_rd=1.00:0.20 / mixed_ref=1 / me_range=24 / chroma_me=1 / trellis=2 / 8x8dct=1 / cqm=0 / deadzone=21,11 / fast_pskip=1 / chroma_qp_offset=-3 / threads=6 / lookahead_threads=1 / sliced_threads=0 / nr=0 / decimate=1 / interlaced=0 / bluray_compat=0 / constrained_intra=0 / bframes=8 / b_pyramid=2 / b_adapt=2 / b_bias=0 / direct=1 / weightb=1 / open_gop=0 / weightp=2 / keyint=250 / keyint_min=25 / scenecut=40 / intra_refresh=0 / rc_lookahead=60 / rc=crf / mbtree=1 / crf=18.0 / qcomp=0.60 / qpmin=0 / qpmax=69 / qpstep=4 / ip_ratio=1.40 / aq=1:1.00
Default : Да
Forced : Нет
Аудио
Идентификатор : 2
Формат : AC-3
Формат/Информация : Audio Coding 3
Расширение режима : CM (complete main)
Параметр Endianness формата : Big
Идентификатор кодека : A_AC3
Продолжительность : 1 ч. 58 м.
Вид битрейта : Постоянный
Битрейт : 448 Кбит/сек
Каналы : 6 каналов
Расположение каналов : Front: L C R, Side: L R, LFE
Частота : 48,0 КГц
Битовая глубина : 16 бит
Метод сжатия : С потерями
Размер потока : 380 Мбайт (14%)
Язык : Russian
Default : Да
Forced : Нет
Текст
Идентификатор : 3
Формат : UTF-8
Идентификатор кодека : S_TEXT/UTF8
Идентификатор кодека/Информация : UTF-8 Plain Text
Язык : Russian
Default : Да
Forced : Нет
h264_log
avs [info]: 720x552p 553:391 @ 25/1 fps (cfr)
x264 [info]: using SAR=553/391
x264 [info]: using cpu capabilities: MMX2 SSE2Fast SSSE3 SSE4.2
x264 [info]: profile High, level 3.1
x264 [info]: frame I:1132 Avg QP:15.61 size: 78148
x264 [info]: frame P:35353 Avg QP:18.80 size: 31809
x264 [info]: frame B:141170 Avg QP:21.91 size: 9136
x264 [info]: consecutive B-frames: 1.2% 1.4% 9.4% 8.7% 9.5% 63.8% 2.9% 1.5% 1.5%
x264 [info]: mb I I16..4: 6.3% 74.8% 18.9%
x264 [info]: mb P I16..4: 1.2% 20.3% 2.9% P16..4: 32.4% 18.6% 17.8% 1.7% 0.9% skip: 4.1%
x264 [info]: mb B I16..4: 0.1% 2.4% 0.4% B16..8: 35.6% 9.6% 2.8% direct:11.4% skip:37.7% L0:40.3% L1:38.2% BI:21.5%
x264 [info]: 8x8 transform intra:82.7% inter:59.8%
x264 [info]: coded y,uvDC,uvAC intra: 91.2% 57.3% 19.0% inter: 36.3% 14.3% 1.0%
x264 [info]: i16 v,h,dc,p: 23% 13% 10% 53%
x264 [info]: i8 v,h,dc,ddl,ddr,vr,hd,vl,hu: 18% 9% 9% 8% 11% 13% 9% 13% 11%
x264 [info]: i4 v,h,dc,ddl,ddr,vr,hd,vl,hu: 17% 8% 5% 9% 14% 15% 11% 12% 11%
x264 [info]: i8c dc,h,v,p: 38% 26% 24% 11%
x264 [info]: Weighted P-Frames: Y:5.5% UV:1.5%
x264 [info]: ref P L0: 38.6% 12.5% 19.7% 5.7% 6.6% 3.7% 4.3% 2.0% 2.5% 1.7% 2.4% 0.4% 0.0%
x264 [info]: ref B L0: 80.6% 10.4% 3.2% 1.7% 1.2% 1.0% 0.8% 0.6% 0.4% 0.2%
x264 [info]: ref B L1: 95.7% 4.3%
x264 [info]: kb/s:2817.54
Скриншоты Сравнения
[url=http://***/forum/viewtopic.php?t=1319799]http://***/forum/viewtopic.php?t=1319799[/url]
http://screenshotcomparison.com/comparison/138070
Скачать

Скачать торрент!

Как скачивать? · Что такое торрент? · Рейтинг и ограничения

Сайт не распространяет и не хранит электронные версии произведений, а лишь предоставляет доступ к создаваемому пользователями каталогу ссылок на торрент-файлы, которые содержат только списки хеш-сумм

[Профиль] [ЛС]
Показать сообщения:    
Ответить на тему

Текущее время: Сегодня 17:45

Часовой пояс: GMT + 4



Вы не можете начинать темы
Вы не можете отвечать на сообщения
Вы не можете редактировать свои сообщения
Вы не можете удалять свои сообщения
Вы не можете голосовать в опросах
Вы не можете прикреплять файлы к сообщениям
Вы не можете скачивать файлы