Миссия невыполнима: Племя изгоев / Mission: Impossible - Rogue Nation (Кристофер МакКуорри / Christopher McQuarrie) [2015, США, боевик, триллер, приключения, CamRip] Dub + Original Eng

Ответить на тему
 
Автор Сообщение

user ®

Стаж: 7 лет 7 месяцев

Сообщений: 20008

Пост Пост: #1 от 10-Авг-2015 00:15

[Цитировать]

Миссия невыполнима: Племя изгоев / Mission: Impossible - Rogue Nation
Страна: США
Жанр: боевик, триллер, приключения
Год выпуска: 2015
Продолжительность: 02:04:35
Перевод: Профессиональный (дублированный)
Cубтитры: нет
Оригинальная аудиодорожка: английский
Режиссер: Кристофер МакКуорри / Christopher McQuarrie
В ролях: Том Круз, Саймон Пегг, Ребекка Фергюсон, Джереми Реннер, Алек Болдуин, Америка Оливо, Винг Реймз, Шон Харрис, Саймон МакБерни, Гермиона Корфилд
Описание: Когда ОМН распускают, и Итан Хант остается не у дел, его команда неожиданно сталкивается с разветвленной международной сетью высокопрофессиональных спецагентов — Синдикатом. Это «племя изгоев» одержимо идеей установления нового мирового порядка и планирует серию разрушительных терактов. Итан и компания объединяются с дискредитированным британским агентом Илсой Фауст и приступают к своей самой невыполнимой миссии, понимая, что каждый из них может оказаться на стороне Синдиката.
Данный релиз предназначен для ознакомления!!!!!!
Сэмпл: http://multi-up.com/1061841
Качество видео: CamRip
Формат видео: AVI
Видео: Xvid 720x304 25.00fps 1 913 Kbps
Аудио: Dolby AC3 48000Hz stereo 192kbps rus
Аудио 2: Dolby AC3 48000Hz stereo 256kbps eng
MediaInfo
Format : AVI
Format/Info : Audio Video Interleave
Format profile : OpenDML
File size : 2.07 GiB
Duration : 2h 4mn
Overall bit rate : 2 380 Kbps
Writing application : VirtualDubMod 1.5.10.2 (build 2540/release)
Video
ID : 0
Format : MPEG-4 Visual
Format profile : Advanced Simple@L5
Format settings, BVOP : Yes
Format settings, QPel : No
Format settings, GMC : No warppoints
Format settings, Matrix : Default (MPEG)
Codec ID : XVID
Codec ID/Hint : XviD
Duration : 2h 4mn
Bit rate : 1 913 Kbps
Width : 720 pixels
Height : 304 pixels
Display aspect ratio : 2.35:1
Frame rate : 25.000 fps
Resolution : 8 bits
Colorimetry : 4:2:0
Scan type : Progressive
Bits/(Pixel*Frame) : 0.350
Stream size : 1.66 GiB (80%)
Writing library : XviD 73
Audio #1
ID : 1
Format : AC-3
Format/Info : Audio Coding 3
Codec ID : 2000
Duration : 2h 4mn
Bit rate mode : Constant
Bit rate : 192 Kbps
Channel(s) : 2 channels
Channel positions : L R
Sampling rate : 48.0 KHz
Video delay : 12ms
Stream size : 171 MiB (8%)
Alignment : Split accross interleaves
Interleave, duration : 40 ms (1.00 video frame)
Interleave, preload duration : 500 ms
Audio #2
ID : 2
Format : AC-3
Format/Info : Audio Coding 3
Codec ID : 2000
Duration : 2h 4mn
Bit rate mode : Constant
Bit rate : 256 Kbps
Channel(s) : 2 channels
Channel positions : L R
Sampling rate : 48.0 KHz
Stream size : 228 MiB (11%)
Alignment : Split accross interleaves
Interleave, duration : 40 ms (1.00 video frame)
Interleave, preload duration : 500 ms
Скриншот c названием фильма Скриншоты
Скачать

Скачать торрент!

Как скачивать? · Что такое торрент? · Рейтинг и ограничения

Сайт не распространяет и не хранит электронные версии произведений, а лишь предоставляет доступ к создаваемому пользователями каталогу ссылок на торрент-файлы, которые содержат только списки хеш-сумм

[Профиль] [ЛС]
Показать сообщения:    
Ответить на тему

Текущее время: Сегодня 07:00

Часовой пояс: GMT + 4



Вы не можете начинать темы
Вы не можете отвечать на сообщения
Вы не можете редактировать свои сообщения
Вы не можете удалять свои сообщения
Вы не можете голосовать в опросах
Вы не можете прикреплять файлы к сообщениям
Вы не можете скачивать файлы