Джастин и рыцари доблести / Justin and the Knights of Valour (Мануэль Сисилия / Manuel Sicilia) [2013, мультфильм, приключения, семейный, HDRip] Dub

Ответить на тему
 
Автор Сообщение

user ®

Стаж: 13 лет

Сообщений: 15041

Пост Пост: #1 от 09-Авг-2015 02:30

[Цитировать]

Джастин и рыцари доблести / Justin and the Knights of Valour
Страна: Испания
Жанр: мультфильм, приключения, семейный
Продолжительность: 01:36:20
Год выпуска: 2013
Перевод: Профессиональный (дублированный)
Русские субтитры: нет
Режиссёр: Мануэль Сисилия / Manuel Sicilia
Роли озвучивали: Фредди Хаймор, Сирша Ронан, Марк Стронг, Дэвид Уоллиамс, Антонио Бандерас, Альфред Молина, Джули Уолтерс, Оливия Уильямс, Чарльз Дэнс, Руперт Эверетт, Джеймс Космо, Майкл Калкин, Тэмсин Эгертон, Стивен Хьюз, Бэрри Хамфриз, Ллойд Хатчинсон...
Роли дублировали: Николай Быстров, Лина Иванова, Владимир Антоник, Константин Карасик, Алексей Чумаков, Ольга Зубкова, Андрей Ярославцев, Владимир Левашёв, Татьяна Шитова, Александр Пожаров, Иван Жарков, Михаил Тихонов и др.
Описание: Действие мультфильма разворачивается в магическом мире, о котором мечтает каждый ребёнок. Джастин мечтает стать рыцарем, но на его пути появляется много препятствий бюрократического характера. Даже отец Джастина против рыцарства и хочет, чтобы сын стал придворным служащим. Тогда мальчик, обуреваемый желанием стать настоящим доблестным Рыцарем, сбегает из дома в поисках приключений. По дороге он знакомится с прекрасной девушкой - Талией, вдохновляющей его на новые подвиги, и встречает мудрых рыцарей-наставников, которые обучают его рыцарскому мастерству. Но хватит ли Джастину полученных знаний для того, чтобы справиться с угрозой, которая нависла над его Королевством? Сумеет ли мальчик преодолеть все препятствия и достичь своей мечты?...
Семпл: http://multi-up.com/1061857
Качество: HDRip
Формат: AVI
Видео: 720x304 (2.37:1), 23.976 fps, XviD build 73 ~1782 kbps avg, 0.34 bit/pixel
Аудио: 48 kHz, AC3 Dolby Digital, 3/2 (L,C,R,l,r) + LFE ch, ~384 kbps
Подробные технические данные
Формат : AVIФормат/Информация : Audio Video InterleaveРазмер файла : 1,46 ГбайтПродолжительность : 1 ч. 36 м.Общий поток : 2176 Кбит/секПрограмма кодирования : VirtualDubMod 1.5.10.3 | www.virtualdub-fr.org || (build 2550/release)Библиотека кодирования : VirtualDubMod build 2550/release
ВидеоИдентификатор : 0Формат : MPEG-4 VisualПрофиль формата : Advanced Simple@L5Параметр BVOP формата : 1Параметр QPel формата : НетПараметр GMC формата : Без точки переходаПараметр матрицы формата : ВыборочнаяИдентификатор кодека : XVIDИдентификатор кодека/Подсказка : XviDПродолжительность : 1 ч. 36 м.Битрейт : 1783 Кбит/секШирина : 720 пикселейВысота : 304 пикселяСоотношение сторон : 2,35:1Частота кадров : 23,976 кадра/секЦветовое пространство : YUVСубдискретизация насыщенности : 4:2:0Битовая глубина : 8 битТип развёртки : ПрогрессивнаяМетод сжатия : С потерямиБит/(Пиксели*Кадры) : 0.340Размер потока : 1,20 Гбайт (82%)Библиотека кодирования : XviD 73
АудиоИдентификатор : 1Формат : AC-3Формат/Информация : Audio Coding 3Расширение режима : CM (complete main)Параметр Endianness формата : BigИдентификатор кодека : 2000Продолжительность : 1 ч. 36 м.Вид битрейта : ПостоянныйБитрейт : 384 Кбит/секКаналы : 6 каналовРасположение каналов : Front: L C R, Side: L R, LFEЧастота : 48,0 КГцБитовая глубина : 16 битМетод сжатия : С потерямиРазмер потока : 265 Мбайт (18%)Выравнивание : Разделение по промежуткамПродолжительность промежутка : 42 мс. (1,00 видеокадр)Время предзагрузки промежутка : 500 мс.
Скриншоты
Скачать

Скачать торрент! Джастин и рыцари доблести / Justin and the Knights of Valour (Мануэль Сисилия / Manuel Sicilia) [2013, мультфильм, приключения, семейный, HDRip] Dub

Как скачивать? · Что такое торрент? · Рейтинг и ограничения

Сайт не распространяет и не хранит электронные версии произведений, а лишь предоставляет доступ к создаваемому пользователями каталогу ссылок на торрент-файлы, которые содержат только списки хеш-сумм

[Профиль] [ЛС]
Показать сообщения:    
Ответить на тему

Текущее время: Сегодня 17:56

Часовой пояс: GMT + 4



Вы не можете начинать темы
Вы не можете отвечать на сообщения
Вы не можете редактировать свои сообщения
Вы не можете удалять свои сообщения
Вы не можете голосовать в опросах
Вы не можете прикреплять файлы к сообщениям
Вы не можете скачивать файлы