Форсаж 7 / Furious Seven (Джеймс Ван / James Wan) [2015, США, Боевик, триллер, криминал, BDRip] [Расширенная версия / Extended Cut] Dub

Ответить на тему
 
Автор Сообщение

user ®

Стаж: 7 лет 7 месяцев

Сообщений: 20008

Пост Пост: #1 от 06-Авг-2015 18:48

[Цитировать]

Форсаж 7 / Furious Seven
«Месть не знает границ»
- Год выпуска: 2015
Выпущено: США / Universal Pictures, Original Film
Жанр: боевик, триллер, криминал
Продолжительность: 02:19:54
Перевод: Профессиональный (полное дублирование) BD CEE
Cубтитры: нет-Режиссер:
Джеймс Ван / James Wan-В ролях:
Пол Уокер (Brian O'Conner), Вин Дизель (Dominic Toretto), Джейсон Стэйтем (Deckard Shaw), Мишель Родригес (Letty), Дуэйн Джонсон (Hobbs), Тайриз Гибсон (Roman), Лудакрис (Tej), Натали Эммануэль (Ramsey), Джордана Брюстер (Mia), Курт Рассел (Mr. Nobody), Тони Джа (Kiet), Джимон Хонсу (Jakande), Эльза Патаки (Elena), Лукас Блэк (Sean Boswell), Галь Гадот (Gisele), Люк Эванс (Owen Shaw), Санг Кенг (Han), Ронда Раузи (Kara)-Описание:
Они покорили Токио и Рио, Лос-Анджелес и Лондон. Но мир больше не играет по их правилам. Зной арабских пустынь, неприлично высокие небоскребы, миллионы долларов на колесах и очень, очень знаменитый злодей. Скорость не знает границ.-Релиз групп [url=http://***/forum/viewtopic.php?t=1677970] [/url] | | IMDB | КиноПоиск | Сэмпл |-Тип релиза: BDRip [BDRemux | 1080p | Кинозал]
Контейнер: AVI
Видео: 720x304 (2.37:1), 23.976 fps, XviD build 73 ~1291 kbps avg, 0.25 bit/pixel
Аудио: 48 kHz, AC3 Dolby Digital, 2/0 (L,R) ch, ~192.00 kbps avg
-Скриншоты MediaInfo
General
Complete name                            : D:\Forsazh_7_2015_BDRip_[Extended_Cut]_by_Dalemake.avi
Format                                   : AVI
Format/Info                              : Audio Video Interleave
File size                                : 1.46 GiB
Duration                                 : 2h 19mn
Overall bit rate                         : 1 492 Kbps
Writing application                      : VirtualDubMod 1.5.10.3 | www.virtualdub-fr.org || (build 2550/release)
Writing library                          : VirtualDubMod build 2550/release
Video
ID                                       : 0
Format                                   : MPEG-4 Visual
Format profile                           : Advanced Simple@L5
Format settings, BVOP                    : 1
Format settings, QPel                    : No
Format settings, GMC                     : No warppoints
Format settings, Matrix                  : Custom
Codec ID                                 : XVID
Codec ID/Hint                            : XviD
Duration                                 : 2h 19mn
Bit rate                                 : 1 291 Kbps
Width                                    : 720 pixels
Height                                   : 304 pixels
Display aspect ratio                     : 2.35:1
Frame rate                               : 23.976 fps
Color space                              : YUV
Chroma subsampling                       : 4:2:0
Bit depth                                : 8 bits
Scan type                                : Progressive
Compression mode                         : Lossy
Bits/(Pixel*Frame)                       : 0.246
Stream size                              : 1.26 GiB (86%)
Writing library                          : XviD 73
Audio
ID                                       : 1
Format                                   : AC-3
Format/Info                              : Audio Coding 3
Mode extension                           : CM (complete main)
Format settings, Endianness              : Big
Codec ID                                 : 2000
Duration                                 : 2h 19mn
Bit rate mode                            : Constant
Bit rate                                 : 192 Kbps
Channel(s)                               : 2 channels
Channel positions                        : Front: L R
Sampling rate                            : 48.0 KHz
Bit depth                                : 16 bits
Compression mode                         : Lossy
Stream size                              : 192 MiB (13%)
Alignment                                : Split accross interleaves
Interleave, duration                     : 42 ms (1.00 video frame)
Interleave, preload duration             : 500 ms
-
Скачать

Скачать торрент!

Как скачивать? · Что такое торрент? · Рейтинг и ограничения

Сайт не распространяет и не хранит электронные версии произведений, а лишь предоставляет доступ к создаваемому пользователями каталогу ссылок на торрент-файлы, которые содержат только списки хеш-сумм

[Профиль] [ЛС]
Показать сообщения:    
Ответить на тему

Текущее время: Сегодня 07:01

Часовой пояс: GMT + 4



Вы не можете начинать темы
Вы не можете отвечать на сообщения
Вы не можете редактировать свои сообщения
Вы не можете удалять свои сообщения
Вы не можете голосовать в опросах
Вы не можете прикреплять файлы к сообщениям
Вы не можете скачивать файлы