Номер 44 / Child 44 (Даниэль Эспиноса / Daniel Espinosa) [2015, США, Триллер, детектив, криминал, драма, BDRip] Dub

Ответить на тему
 
Автор Сообщение

user ®

Стаж: 7 лет 7 месяцев

Сообщений: 20008

Пост Пост: #1 от 06-Авг-2015 12:36

[Цитировать]

Номер 44 / Child 44
«Можно ли найти убийцу, которого нет»
- Год выпуска: 2015
Страна: США, Великобритания, Чехия, Румыния, Россия
Жанр: триллер, детектив, криминал, драма
Продолжительность: 02:17:11
Перевод: Профессиональный (полное дублирование)
Cубтитры: нет-Режиссер:
Даниэль Эспиноса / Daniel Espinosa-В ролях:
Том Харди, Гари Олдман, Нуми Рапас, Юэль Киннаман, Пэдди Консидайн, Джейсон Кларк, Венсан Кассель, Ксавьер Аткинс, Марк Льюис Джонс, Фарес Фарес-Описание:
СССР, начало 50-ых годов. Офицер МГБ Лев Демидов решает расследовать серию убийств детей, но проблема в том, что это идёт вразрез с утверждением «у нас убийств нет» самого тов. Сталина…-Релиз групп [url=http://***/forum/viewtopic.php?t=1677970] [/url] | | IMDB | КиноПоиск | Сэмпл |-Качество: BDRip [BDRemux | 1080p | HDCLUB]
Формат: AVI
Видео: 720x304 (2.37:1), 23.976 fps, XviD build 73 ~1321 kbps avg, 0.25 bit/pixel
Аудио: 48 kHz, AC3 Dolby Digital, 2/0 (L,R) ch, ~192.00 kbps avg
-Скриншоты MediaInfo
General
Complete name                            : D:\Nomer_44_2015_BDRip_iT_by_Dalemake.avi
Format                                   : AVI
Format/Info                              : Audio Video Interleave
File size                                : 1.46 GiB
Duration                                 : 2h 17mn
Overall bit rate                         : 1 523 Kbps
Writing application                      : VirtualDubMod 1.5.10.3 | www.virtualdub-fr.org || (build 2550/release)
Writing library                          : VirtualDubMod build 2550/release
Video
ID                                       : 0
Format                                   : MPEG-4 Visual
Format profile                           : Advanced Simple@L5
Format settings, BVOP                    : 1
Format settings, QPel                    : No
Format settings, GMC                     : No warppoints
Format settings, Matrix                  : Custom
Codec ID                                 : XVID
Codec ID/Hint                            : XviD
Duration                                 : 2h 17mn
Bit rate                                 : 1 321 Kbps
Width                                    : 720 pixels
Height                                   : 304 pixels
Display aspect ratio                     : 2.35:1
Frame rate                               : 23.976 fps
Color space                              : YUV
Chroma subsampling                       : 4:2:0
Bit depth                                : 8 bits
Scan type                                : Progressive
Compression mode                         : Lossy
Bits/(Pixel*Frame)                       : 0.252
Stream size                              : 1.27 GiB (87%)
Writing library                          : XviD 73
Audio
ID                                       : 1
Format                                   : AC-3
Format/Info                              : Audio Coding 3
Mode extension                           : CM (complete main)
Format settings, Endianness              : Big
Codec ID                                 : 2000
Duration                                 : 2h 17mn
Bit rate mode                            : Constant
Bit rate                                 : 192 Kbps
Channel(s)                               : 2 channels
Channel positions                        : Front: L R
Sampling rate                            : 48.0 KHz
Bit depth                                : 16 bits
Compression mode                         : Lossy
Stream size                              : 188 MiB (13%)
Alignment                                : Split accross interleaves
Interleave, duration                     : 42 ms (1.00 video frame)
Interleave, preload duration             : 500 ms
Сравнение
[url=http://***/forum/viewtopic.php?t=5040192]http://***/forum/viewtopic.php?t=5040192[/url]
http://screenshotcomparison.com/comparison/137523 - ну тут думаю всё ясно)
-
Скачать

Скачать торрент!

Как скачивать? · Что такое торрент? · Рейтинг и ограничения

Сайт не распространяет и не хранит электронные версии произведений, а лишь предоставляет доступ к создаваемому пользователями каталогу ссылок на торрент-файлы, которые содержат только списки хеш-сумм

[Профиль] [ЛС]
Показать сообщения:    
Ответить на тему

Текущее время: Сегодня 10:05

Часовой пояс: GMT + 4



Вы не можете начинать темы
Вы не можете отвечать на сообщения
Вы не можете редактировать свои сообщения
Вы не можете удалять свои сообщения
Вы не можете голосовать в опросах
Вы не можете прикреплять файлы к сообщениям
Вы не можете скачивать файлы