Незнайка на Луне (Юрий Бутырин, Андрей Игнатенко, Александр Люткевич) [1997-1999, мультфильм, VHSRip-AVC]

Ответить на тему
 
Автор Сообщение

user ®

Стаж: 7 лет 7 месяцев

Сообщений: 20008

Пост Пост: #1 от 05-Авг-2015 02:30

[Цитировать]

Незнайка на Луне
VHS версия с дополнительными материалами, из личного архива.
Страна: Россия
Жанр: мультфильм
Продолжительность: 01:04:42 + 01:04:04 + 00:56:32
Год выпуска: 1997-1999
Русские субтитры: нет
Режиссёр: Юрий Бутырин, Андрей Игнатенко, Александр Люткевич
Роли озвучивали: Венера Рахимова, Кристина Орбакайте, Светлана Степченко, Алексей Борзунов, Клара Румянова, Александр Леньков, Артем Карапетян, Михаил Кононов, Светлана Харлап и др.
Описание: "Незнайка на Луне" - грандиозный анимационный проект с участием звездных голосов российской эстрады Кристины Орбакайте в роли Звездочки и Валерия Меладзе с песенным хитом, как лейтмотивом фильма.
В очаровательной детской фантастике с захватывающим сюжетом, юмором и добротой за развлекательным жанром кроется глубокий смысл. Наряду с приключениями ребенка ждут жизненно важные знания об экономике, физике и астрономии. Веселая и поучительная история еще раз напомнит о вечных истинах, о том, что добро всегда побеждает зло.
Это интересная и поучительная сказка не оставит никого равнодушным и доставит огромное удовольствие от просмотра.
Доп. информация: Не увидел ни одной копии с VHS на трекере и в интернете.
Лента местами подохла, так как хранилось черт пойми как. Ошибок трекинга нет, картинка везде целая, звук — местами слышен фон на громких моментах, после проверки другими кассетами выяснилось, что не дефект оцифровки, а дефект самой записи.
Третья кассета содержит также все дополнительные материалы.
Измывательства над файлом:
- Обрезан шум головок снизу
- Обрезаны черные поля по бокам
- Deinterlace, denoise (HQ3DN)
- Перекодирован в h264 при помощи Handbrake с попутной обрезкой экрана видеомагнитофона
Больше никаких изменений не вносилось, что на кассете — то и здесь.
Оцифровано с кассет из «Волшебного чемоданчика», музыка — выкладывал [url=http://***/forum/viewtopic.php?t=5012984]ТУТ[/url]
Семпл: http://multi-up.com/1059340
Качество: VHSRip
Формат: MP4
Видео: AVC1 High@L4 ~3976kbps 702x568 25fps YUV 4:2:0 Progressive
Аудио: AAC-LC 165kbps 2ch 44100Hz
Субтитры: отсутствуют
Подробные технические данные
КАССЕТА №1
Complete name : neznaika1.mp4Format : MPEG-4Format profile : Base Media / Version 2Codec ID : mp42File size : 1.87 GiBDuration : 1h 4mnOverall bit rate mode : VariableOverall bit rate : 4 145 KbpsEncoded date : UTC 2015-07-20 11:00:49Tagged date : UTC 2015-07-20 11:00:49Writing application : HandBrake 0.10.2 2015061100
VideoID : 1Format : AVCFormat/Info : Advanced Video CodecFormat profile : High@L4Format settings, CABAC : YesFormat settings, ReFrames : 4 framesCodec ID : avc1Codec ID/Info : Advanced Video CodingDuration : 1h 4mnBit rate : 3 976 KbpsWidth : 702 pixelsHeight : 568 pixelsDisplay aspect ratio : 4:3Original display aspect ratio : 4:3Frame rate mode : VariableFrame rate : 25.000 fpsMinimum frame rate : 6.250 fpsMaximum frame rate : 25.000 fpsColor space : YUVChroma subsampling : 4:2:0Bit depth : 8 bitsScan type : ProgressiveBits/(Pixel*Frame) : 0.399Stream size : 1.80 GiB (96%)Writing library : x264 core 142 r2479 dd79a61Encoding settings : cabac=1 / ref=3 / deblock=1:0:0 / analyse=0x3:0x113 / me=hex / subme=7 / psy=1 / psy_rd=1.00:0.00 / mixed_ref=1 / me_range=16 / chroma_me=1 / trellis=1 / 8x8dct=1 / cqm=0 / deadzone=21,11 / fast_pskip=1 / chroma_qp_offset=-2 / threads=6 / lookahead_threads=1 / sliced_threads=0 / nr=0 / decimate=1 / interlaced=0 / bluray_compat=0 / constrained_intra=0 / bframes=3 / b_pyramid=2 / b_adapt=1 / b_bias=0 / direct=1 / weightb=1 / open_gop=0 / weightp=2 / keyint=250 / keyint_min=25 / scenecut=40 / intra_refresh=0 / rc_lookahead=40 / rc=crf / mbtree=1 / crf=20.0 / qcomp=0.60 / qpmin=0 / qpmax=69 / qpstep=4 / vbv_maxrate=25000 / vbv_bufsize=31250 / crf_max=0.0 / nal_hrd=none / filler=0 / ip_ratio=1.40 / aq=1:1.00Encoded date : UTC 2015-07-20 11:00:49Tagged date : UTC 2015-07-20 11:00:49Color range : LimitedColor primaries : BT.709Transfer characteristics : BT.709Matrix coefficients : BT.709
AudioID : 2Format : AACFormat/Info : Advanced Audio CodecFormat profile : LCCodec ID : 40Duration : 1h 4mnBit rate mode : VariableBit rate : 165 KbpsChannel(s) : 2 channelsChannel positions : Front: L RSampling rate : 44.1 KHzCompression mode : LossyStream size : 76.2 MiB (4%)Title : Stereo / StereoEncoded date : UTC 2015-07-20 11:00:49Tagged date : UTC 2015-07-20 11:00:49
КАССЕТА №2
Complete name : /Users/tigra/Downloads/neznaika2.mp4Format : MPEG-4Format profile : Base Media / Version 2Codec ID : mp42File size : 1.81 GiBDuration : 1h 4mnOverall bit rate mode : VariableOverall bit rate : 4 047 KbpsEncoded date : UTC 2015-07-20 11:41:55Tagged date : UTC 2015-07-20 11:41:55Writing application : HandBrake 0.10.2 2015061100
VideoID : 1Format : AVCFormat/Info : Advanced Video CodecFormat profile : High@L4Format settings, CABAC : YesFormat settings, ReFrames : 4 framesCodec ID : avc1Codec ID/Info : Advanced Video CodingDuration : 1h 4mnBit rate : 3 877 KbpsWidth : 700 pixelsHeight : 568 pixelsDisplay aspect ratio : 4:3Frame rate mode : VariableFrame rate : 25.000 fpsMinimum frame rate : 12.500 fpsMaximum frame rate : 25.000 fpsColor space : YUVChroma subsampling : 4:2:0Bit depth : 8 bitsScan type : ProgressiveBits/(Pixel*Frame) : 0.390Stream size : 1.73 GiB (96%)Writing library : x264 core 142 r2479 dd79a61Encoding settings : cabac=1 / ref=3 / deblock=1:0:0 / analyse=0x3:0x113 / me=hex / subme=7 / psy=1 / psy_rd=1.00:0.00 / mixed_ref=1 / me_range=16 / chroma_me=1 / trellis=1 / 8x8dct=1 / cqm=0 / deadzone=21,11 / fast_pskip=1 / chroma_qp_offset=-2 / threads=6 / lookahead_threads=1 / sliced_threads=0 / nr=0 / decimate=1 / interlaced=0 / bluray_compat=0 / constrained_intra=0 / bframes=3 / b_pyramid=2 / b_adapt=1 / b_bias=0 / direct=1 / weightb=1 / open_gop=0 / weightp=2 / keyint=250 / keyint_min=25 / scenecut=40 / intra_refresh=0 / rc_lookahead=40 / rc=crf / mbtree=1 / crf=20.0 / qcomp=0.60 / qpmin=0 / qpmax=69 / qpstep=4 / vbv_maxrate=25000 / vbv_bufsize=31250 / crf_max=0.0 / nal_hrd=none / filler=0 / ip_ratio=1.40 / aq=1:1.00Encoded date : UTC 2015-07-20 11:41:55Tagged date : UTC 2015-07-20 11:41:55Color range : LimitedColor primaries : BT.709Transfer characteristics : BT.709Matrix coefficients : BT.709
AudioID : 2Format : AACFormat/Info : Advanced Audio CodecFormat profile : LCCodec ID : 40Duration : 1h 4mnBit rate mode : VariableBit rate : 165 KbpsChannel(s) : 2 channelsChannel positions : Front: L RSampling rate : 44.1 KHzCompression mode : LossyStream size : 75.4 MiB (4%)Title : Stereo / StereoEncoded date : UTC 2015-07-20 11:41:55Tagged date : UTC 2015-07-20 11:41:55
КАССЕТА №3
Complete name : /Users/tigra/Downloads/neznaika3.mp4Format : MPEG-4Format profile : Base Media / Version 2Codec ID : mp42File size : 1.90 GiBDuration : 56mn 32sOverall bit rate mode : VariableOverall bit rate : 4 805 KbpsEncoded date : UTC 2015-07-20 12:24:12Tagged date : UTC 2015-07-20 12:24:12Writing application : HandBrake 0.10.2 2015061100
VideoID : 1Format : AVCFormat/Info : Advanced Video CodecFormat profile : High@L4Format settings, CABAC : YesFormat settings, ReFrames : 4 framesCodec ID : avc1Codec ID/Info : Advanced Video CodingDuration : 56mn 32sBit rate : 4 637 KbpsWidth : 702 pixelsHeight : 568 pixelsDisplay aspect ratio : 4:3Original display aspect ratio : 4:3Frame rate mode : VariableFrame rate : 25.000 fpsMinimum frame rate : 12.500 fpsMaximum frame rate : 25.000 fpsColor space : YUVChroma subsampling : 4:2:0Bit depth : 8 bitsScan type : ProgressiveBits/(Pixel*Frame) : 0.465Stream size : 1.83 GiB (96%)Writing library : x264 core 142 r2479 dd79a61Encoding settings : cabac=1 / ref=3 / deblock=1:0:0 / analyse=0x3:0x113 / me=hex / subme=7 / psy=1 / psy_rd=1.00:0.00 / mixed_ref=1 / me_range=16 / chroma_me=1 / trellis=1 / 8x8dct=1 / cqm=0 / deadzone=21,11 / fast_pskip=1 / chroma_qp_offset=-2 / threads=6 / lookahead_threads=1 / sliced_threads=0 / nr=0 / decimate=1 / interlaced=0 / bluray_compat=0 / constrained_intra=0 / bframes=3 / b_pyramid=2 / b_adapt=1 / b_bias=0 / direct=1 / weightb=1 / open_gop=0 / weightp=2 / keyint=250 / keyint_min=25 / scenecut=40 / intra_refresh=0 / rc_lookahead=40 / rc=crf / mbtree=1 / crf=20.0 / qcomp=0.60 / qpmin=0 / qpmax=69 / qpstep=4 / vbv_maxrate=25000 / vbv_bufsize=31250 / crf_max=0.0 / nal_hrd=none / filler=0 / ip_ratio=1.40 / aq=1:1.00Encoded date : UTC 2015-07-20 12:24:12Tagged date : UTC 2015-07-20 12:24:12Color range : LimitedColor primaries : BT.709Transfer characteristics : BT.709Matrix coefficients : BT.709
AudioID : 2Format : AACFormat/Info : Advanced Audio CodecFormat profile : LCCodec ID : 40Duration : 56mn 32sBit rate mode : VariableBit rate : 163 KbpsChannel(s) : 2 channelsChannel positions : Front: L RSampling rate : 44.1 KHzCompression mode : LossyStream size : 66.0 MiB (3%)Title : Stereo / StereoEncoded date : UTC 2015-07-20 12:24:12Tagged date : UTC 2015-07-20 12:24:12
Скриншоты Отличия
- Нет рассинхрона звука и видео в сравнении с DVD
- В телевизионной версии 8-й серии по непонятной причине был пропущен фрагмент, где Спрутс говорит, что учёные-астрономы потребовали три миллиарда фертингов, чтобы построить летательный аппарат.
- В VHS-версии совсем иной шрифт текста в титрах первых шести сериях (VHS-версия последующих шести серий использовала тот же шрифт, что и телевизионная).
- В этой версии имеется удаленная сцена Рассуждения Знайки (из 10-й серии) — после того, как коротышки под руководством Стекляшкина устанавливают надувную бутылку (как будто ракета) с газированной водой (как будто топливо), идёт сцена, где Знайка сидит в зарослях клубники и думает об идее Стекляшкина, что Луна необитаема, и поэтому Незнайку и Пончика нужно спасать. Также Знайка размышляет о том, вернуться ли ему к остальным или остаться. Всё же он выбирает второе.
Остальные отличия пока не успел проверить, похоже все по списку [url=https://ru.wikipedia.org/wiki/%D0%9D%D0%B5%D0%B7%D0%BD%D0%B0%D0%B9%D0%BA%D0%B0_%D0%BD%D0%B0_%D0%9B%D1%83%D0%BD%D0%B5_(%D0%BC%D1%83%D0%BB%D1%8C%D1%82%D1%84%D0%B8%D0%BB%D1%8C%D0%BC)#.D0.A0.D0.B0.D0.B7.D0.BB.D0.B8.D1.87.D0.B8.D1.8F]вики[/url]
Дополнительные материалы кассеты №3 перенесены в [url=http://***/forum/viewtopic.php?t=5054564]отдельную раздачу[/url], просьба перекачать торрент!
Скачать

Скачать торрент!

Как скачивать? · Что такое торрент? · Рейтинг и ограничения

Сайт не распространяет и не хранит электронные версии произведений, а лишь предоставляет доступ к создаваемому пользователями каталогу ссылок на торрент-файлы, которые содержат только списки хеш-сумм

[Профиль] [ЛС]
Показать сообщения:    
Ответить на тему

Текущее время: Сегодня 12:47

Часовой пояс: GMT + 4



Вы не можете начинать темы
Вы не можете отвечать на сообщения
Вы не можете редактировать свои сообщения
Вы не можете удалять свои сообщения
Вы не можете голосовать в опросах
Вы не можете прикреплять файлы к сообщениям
Вы не можете скачивать файлы