Легенда №17 (Николай Лебедев) [2013 г., спорт, драма, биография, HDRip-AVC]

Ответить на тему
 
Автор Сообщение

user ®

Стаж: 7 лет 7 месяцев

Сообщений: 20008

Пост Пост: #1 от 05-Авг-2015 02:30

[Цитировать]

-Легенда №17--Год выпуска: 2013Жанр: спорт, драма, биографияПродолжительность: 02:13:53--Режиссер:Николай Лебедев-В ролях:Данила Козловский, Олег Меньшиков, Светлана Иванова, Владимир Меньшов, Александр Лобанов, Сергей Генкин, Роман Мадянов, Александр Яковлев, Алехандра Грепи, Борис Щербаков-Описание:
2 сентября 1972 года. Монреаль. Хоккейная сборная СССР с разгромным счетом 7:3 победила канадских профессионалов из НХЛ в стартовом матче эпохальной Суперсерии СССР-Канада. Это была не просто игра, это была битва за свою страну, которая перевернула мировое представление о хоккее.
Теперь весь мир знал его просто по номеру «17». Валерий Харламов, забивший в том матче 2 шайбы, мгновенно взлетел на вершину славы. Сбылась его мечта - упорство, спортивный талант и суровые уроки великого тренера Анатолия Тарасова сделали из «номера 17» легенду мирового хоккея.
--Дополнительная информация:- [url=http://***/forum/viewtopic.php?t=1460328] [/url] [url=http://***/forum/viewtopic.php?t=1677970] [/url]-Сэмпл Рип совместим с бытовыми DVD-проигрывателями.--Качество видео: HDRip-AVC (Исходник: BDRip 1080p )
Формат видео: MKV
Видео: AVC (x264), 784x384 (9:6), 24 fps, ~1368 kbps avg, 0.222 bit/pixel
Аудио: 48 kHz, AC3 Dolby Digital, 2/0 (L,R) ch, 192.00 kbps-Скриншоты

Название MediaInfo/log
log
x264 [info]: frame I:1567 Avg QP:20.13 size: 33713
x264 [info]: frame P:49468 Avg QP:22.77 size: 12230
x264 [info]: frame B:141770 Avg QP:23.26 size: 5049
x264 [info]: consecutive B-frames: 3.7% 4.7% 11.8% 35.9% 16.5% 19.6% 2.6% 3.0% 1.4% 0.6% 0.3%
x264 [info]: mb I I16..4: 3.2% 72.6% 24.2%
x264 [info]: mb P I16..4: 1.9% 18.1% 3.5% P16..4: 29.9% 32.6% 9.5% 0.0% 0.0% skip: 4.4%
x264 [info]: mb B I16..4: 0.3% 2.5% 0.4% B16..8: 34.7% 22.2% 4.0% direct: 6.8% skip:29.1% L0:39.3% L1:45.7% BI:15.0%
x264 [info]: 8x8 transform intra:76.9% inter:63.0%
x264 [info]: direct mvs spatial:98.0% temporal:2.0%
x264 [info]: coded y,uvDC,uvAC intra: 80.3% 81.0% 48.9% inter: 29.0% 26.0% 7.3%
x264 [info]: i16 v,h,dc,p: 16% 26% 5% 54%
x264 [info]: i8 v,h,dc,ddl,ddr,vr,hd,vl,hu: 11% 9% 7% 9% 13% 13% 13% 11% 14%
x264 [info]: i4 v,h,dc,ddl,ddr,vr,hd,vl,hu: 14% 11% 6% 8% 13% 13% 13% 10% 13%
x264 [info]: i8c dc,h,v,p: 33% 29% 19% 19%
x264 [info]: Weighted P-Frames: Y:5.0% UV:3.0%
x264 [info]: ref P L0: 54.3% 9.9% 15.1% 6.2% 4.3% 3.1% 2.3% 1.4% 1.1% 0.9% 0.7% 0.6% 0.1% 0.0%
x264 [info]: ref B L0: 80.1% 10.1% 4.0% 1.9% 1.3% 0.9% 0.7% 0.4% 0.3% 0.2% 0.1%
x264 [info]: ref B L1: 94.7% 5.3%
x264 [info]: kb/s:1367.93
General
Unique ID : 252045523090074426175846670615262097623 (0xBD9E33B807200B68AC5BFEB10E1170D7)
Complete name : \Legenda_№ 17_(2013).HDRip-AVC.ac3_[All.Films][RG].mkv
Format : Matroska
Format version : Version 2
File size : 1.46 GiB
Duration : 2h 13mn
Overall bit rate : 1 562 Kbps
Movie name : Легенда №17 (2013) HDRip-AVC | [All.Films][RG][***]
Encoded date : UTC 2015-08-04 17:12:22
Writing application : mkvmerge v7.8.0 ('River Man') 32bit built on Apr 3 2015 12:11:22
Writing library : libebml v1.3.1 + libmatroska v1.4.2
Video
ID : 1
Format : AVC
Format/Info : Advanced Video Codec
Format profile : High@L4.1
Format settings, CABAC : Yes
Format settings, ReFrames : 12 frames
Codec ID : V_MPEG4/ISO/AVC
Duration : 2h 13mn
Bit rate : 1 368 Kbps
Width : 784 pixels
Height : 328 pixels
Display aspect ratio : 2.40:1
Frame rate mode : Constant
Frame rate : 24.000 fps
Color space : YUV
Chroma subsampling : 4:2:0
Bit depth : 8 bits
Scan type : Progressive
Bits/(Pixel*Frame) : 0.222
Stream size : 1.25 GiB (86%)
Writing library : x264 core 146 r2538kMod 121396c
Encoding settings : cabac=1 / ref=12 / deblock=1:-2:-1 / analyse=0x3:0x113 / me=umh / subme=11 / psy=1 / fade_compensate=0.00 / psy_rd=0.93:0.00 / mixed_ref=1 / me_range=36 / chroma_me=1 / trellis=2 / 8x8dct=1 / cqm=0 / deadzone=21,11 / fast_pskip=0 / chroma_qp_offset=-2 / threads=6 / lookahead_threads=1 / sliced_threads=0 / nr=0 / decimate=0 / interlaced=0 / bluray_compat=0 / constrained_intra=0 / fgo=0 / bframes=10 / b_pyramid=2 / b_adapt=2 / b_bias=0 / direct=3 / weightb=1 / open_gop=0 / weightp=2 / keyint=240 / keyint_min=24 / scenecut=40 / intra_refresh=0 / rc_lookahead=60 / rc=2pass / mbtree=0 / bitrate=1368 / ratetol=1.0 / qcomp=0.60 / qpmin=10 / qpmax=51 / qpstep=4 / cplxblur=20.0 / qblur=0.5 / vbv_maxrate=50000 / vbv_bufsize=62500 / nal_hrd=none / filler=0 / ip_ratio=1.30 / pb_ratio=1.20 / aq=3:1.00 / zones=186200,192806,q=35
Default : Yes
Forced : No
Audio
ID : 2
Format : AC-3
Format/Info : Audio Coding 3
Mode extension : CM (complete main)
Format settings, Endianness : Big
Codec ID : A_AC3
Duration : 2h 13mn
Bit rate mode : Constant
Bit rate : 192 Kbps
Channel(s) : 2 channels
Channel positions : Front: L R
Sampling rate : 48.0 KHz
Compression mode : Lossy
Stream size : 184 MiB (12%)
Language : Russian
Default : Yes
Forced : No
Menu
00:00:00.000 : :Chapter 01
00:07:01.708 : :Chapter 02
00:14:53.083 : :Chapter 03
00:22:34.208 : :Chapter 04
00:28:59.500 : :Chapter 05
00:37:15.500 : :Chapter 06
00:45:29.625 : :Chapter 07
00:57:35.291 : :Chapter 08
01:08:11.791 : :Chapter 09
01:17:34.208 : :Chapter 10
01:26:25.541 : :Chapter 11
01:34:09.208 : :Chapter 12
01:43:26.458 : :Chapter 13
01:49:54.083 : :Chapter 14
01:58:50.791 : :Chapter 15
02:07:19.291 : :Chapter 16
FAQ по просмотру MKV/h.264/AAC
  • [url=http://***/forum/viewtopic.php?p=9255801#1]Смогу ли я запустить AVC фильм на своём компьютере?[/url]
  • [url=http://***/forum/viewtopic.php?p=9255801#2]Сампл из раздачи не воспроизводится/тормозит или отсутствует звук/изображение. Что делать?[/url]
  • [url=http://***/forum/viewtopic.php?p=9255801#3]Что такое H.264/AVC и зачем он нужен?[/url]
  • [url=http://***/forum/viewtopic.php?p=9255801#4]Что за дурацкий формат .MKV?[/url]
  • [url=http://***/forum/viewtopic.php?p=9255801#5]Почему MKV? Чем AVI хуже?[/url]
  • [url=http://***/forum/viewtopic.php?p=9255801#6]Не могу переключить/включить/выключить аудио/видео дорожки и/или субтитры. Что делать?[/url]
  • [url=http://***/forum/viewtopic.php?p=9255801#14]Как сделать так, чтобы по умолчанию при просмотре MKV файлов нужные/ненужные субтитры были включены/выключены, и/или сразу проигрывалась дорожка на нужном мне языке?[/url]
  • [url=http://***/forum/viewtopic.php?p=9255801#7]Будут ли фильмы в таком формате проигрываться на бытовых плеерах без компьютера?[/url]
  • [url=http://***/forum/viewtopic.php?p=9255801#8]Проигрываю фильм, а картинка очень сильно отличается от скринов/бледная/перенасыщенная. Что не так?[/url]
  • [url=http://***/forum/viewtopic.php?p=9255801#9]Можно ли сконвертировать AVC в DVD?[/url]
  • [url=http://***/forum/viewtopic.php?p=9255801#10]Почему сплюснута картинка / в характеристиках видео указано два разрешения / что такое анаморфное разрешение?[/url]
  • [url=http://***/forum/viewtopic.php?p=9255801#169]Зачем релизёры обманывают качающих и пишут в заголовке 720p/1080p, а на самом деле раздают видеоматериалы в непонятных разрешениях?[/url]
  • [url=http://***/forum/viewtopic.php?p=9255801#11]Можно ли вывести многоканальный FLAC/AAC-звук на внешний ресивер?[/url]
  • [url=http://***/forum/viewtopic.php?p=9255801#12]У меня 2-канальная акустика/стереонаушники. При просмотре видео почти не слышно/совсем не слышно речь/разговоры, играют только фоновые звуки. Что делать?[/url]
  • [url=http://***/forum/viewtopic.php?p=9255801#coreweightp]У меня стоит CoreAVC версии 1.9.5 или младше. При воспроизведении картинка рассыпается на квадраты и разноцветные пятна. Кривой рип?[/url]
  • [url=http://***/forum/viewtopic.php?p=9255801#13]Всё прочитал(-а), решения своей проблемы не нашёл(-шла)/не смог(-ла) разобраться. Что делать?[/url]
    Сравнение
[url=http://***/forum/viewtopic.php?t=5035590]http://***/forum/viewtopic.php?t=5035590[/url] (ASP) -> http://screenshotcomparison.com/comparison/137536
Скачать

Скачать торрент!

Как скачивать? · Что такое торрент? · Рейтинг и ограничения

Сайт не распространяет и не хранит электронные версии произведений, а лишь предоставляет доступ к создаваемому пользователями каталогу ссылок на торрент-файлы, которые содержат только списки хеш-сумм

[Профиль] [ЛС]
Показать сообщения:    
Ответить на тему

Текущее время: Сегодня 12:32

Часовой пояс: GMT + 4



Вы не можете начинать темы
Вы не можете отвечать на сообщения
Вы не можете редактировать свои сообщения
Вы не можете удалять свои сообщения
Вы не можете голосовать в опросах
Вы не можете прикреплять файлы к сообщениям
Вы не можете скачивать файлы