Форсаж 7 / Furious 7 (Джеймс Ван / James Wan) [2015, США, боевик, триллер, криминал, Blu-ray disc 1080p] [2in1: Theatrical & Extended Cut] CEE Dub + Sub Rus, Eng + Original Eng

Ответить на тему
 
Автор Сообщение

user ®

Стаж: 7 лет 7 месяцев

Сообщений: 20008

Пост Пост: #1 от 04-Авг-2015 17:12

[Цитировать]

Форсаж 7 / Furious 7
Страна: США
Жанр: боевик, триллер, криминал
Год выпуска: 2015
Продолжительность: 02:17:19 | 02:19:54
Перевод: Профессиональный (дублированный)
Cубтитры: Английский, Болгарский, Хорватский, Чешский, Эстонский, Греческий, Иврит, Венгерский, Латышский, Литовский, Польский, Румынский, Русский, Словенский, Турецкий, Украинский.
Оригинальная аудиодорожка: английский
Режиссер: Джеймс Ван / James Wan
В ролях: Вин Дизель, Пол Уокер, Джейсон Стэйтем, Мишель Родригес, Дуэйн Джонсон, Тайриз Гибсон, Лудакрис, Натали Эммануэль, Джордана Брюстер, Курт Рассел.
Описание: Они покорили Токио и Рио, Лос-Анджелес и Лондон. Но мир больше не играет по их правилам. Зной арабских пустынь, неприлично высокие небоскребы, миллионы долларов на колесах и очень, очень знаменитый злодей. Скорость не знает границ.
Доп. информация: CEE - Central Eastern Europe original release!
Меню: анимированное / озвученное.
Сэмпл: http://sendfile.su/1142825
Тип релиза: Blu-ray disc
Контейнер: BDMV
Видео: MPEG-4 AVC Video / 20099 kbps / 1080p / 23,976 fps / 16:9 / High Profile 4.1
Аудио 1: English / DTS-HD Master Audio / 7.1 / 48 kHz / 4924 kbps / 24-bit (DTS Core: 5.1 / 48 kHz / 1509 kbps / 24-bit)
Аудио 2: Czech / DTS Audio / 5.1 / 48 kHz / 768 kbps / 24-bit
Аудио 3: Hungarian / DTS Audio / 5.1 / 48 kHz / 768 kbps / 24-bit
Аудио 4: Polish / Dolby Digital Audio / 5.1 / 48 kHz / 448 kbps / DN -4dB
Аудио 5: Russian / Dolby Digital Audio / 5.1 / 48 kHz / 448 kbps / DN -4dB
Аудио 6: Turkish / Dolby Digital Audio / 5.1 / 48 kHz / 448 kbps / DN -4dB
На диске
* Удалённые эпизоды
* Oбсуждение фильма
* Снова на линии старта
* Летающие машины
* Похищение на ходу
* Прыжки между башнями
* Машины фильма "Furious"
* Гоночные воины
* See You Again: Видеоклип
* Создание "Fast & Furious Supercharged"
BDInfo
DISC INFO:
Disc Title: Furious 7
Disc Size: 47 541 555 117 bytes
Protection: AACS
BD-Java: Yes
BDInfo: 0.5.8
PLAYLIST REPORT:
Name: 00800.MPLS
Length: 2:17:19.606 (h:m:s.ms)
Size: 30 929 786 880 bytes
Total Bitrate: 30,03 Mbps
VIDEO:
Codec Bitrate Description
----- ------- -----------
MPEG-4 AVC Video 20099 kbps 1080p / 23,976 fps / 16:9 / High Profile 4.1
AUDIO:
Codec Language Bitrate Description
----- -------- ------- -----------
DTS-HD Master Audio English 4924 kbps 7.1 / 48 kHz / 4924 kbps / 24-bit (DTS Core: 5.1 / 48 kHz / 1509 kbps / 24-bit)
DTS Audio Czech 768 kbps 5.1 / 48 kHz / 768 kbps / 24-bit
DTS Audio Hungarian 768 kbps 5.1 / 48 kHz / 768 kbps / 24-bit
Dolby Digital Audio Polish 448 kbps 5.1 / 48 kHz / 448 kbps / DN -4dB
Dolby Digital Audio Russian 448 kbps 5.1 / 48 kHz / 448 kbps / DN -4dB
Dolby Digital Audio Turkish 448 kbps 5.1 / 48 kHz / 448 kbps / DN -4dB
SUBTITLES:
Codec Language Bitrate Description
----- -------- ------- -----------
Presentation Graphics English 31,920 kbps
Presentation Graphics Czech 19,825 kbps
Presentation Graphics Hungarian 24,917 kbps
Presentation Graphics Polish 21,123 kbps
Presentation Graphics Russian 25,996 kbps
Presentation Graphics Turkish 25,584 kbps
Presentation Graphics Bulgarian 20,561 kbps
Presentation Graphics Croatian 23,253 kbps
Presentation Graphics Estonian 21,546 kbps
Presentation Graphics Greek 27,454 kbps
Presentation Graphics Hebrew 17,703 kbps
Presentation Graphics Latvian 21,609 kbps
Presentation Graphics Lithuanian 26,208 kbps
Presentation Graphics Romanian 22,155 kbps
Presentation Graphics Slovenian 18,459 kbps
Presentation Graphics Ukrainian 26,142 kbps
Presentation Graphics Czech 0,179 kbps
Presentation Graphics Hungarian 0,984 kbps
Presentation Graphics Russian 0,960 kbps
Presentation Graphics Turkish 0,310 kbps
FILES:
Name Time In Length Size Total Bitrate
---- ------- ------ ---- -------------
00813.M2TS 0:00:00.000 0:03:25.663 761 561 088 29 624
00802.M2TS 0:03:25.663 0:08:51.072 1 953 011 712 29 420
00814.M2TS 0:12:16.735 0:00:57.390 214 769 664 29 938
00803.M2TS 0:13:14.126 0:14:04.969 3 122 608 128 29 564
00815.M2TS 0:27:19.095 0:01:16.076 282 181 632 29 674
00804.M2TS 0:28:35.171 0:01:21.456 303 605 760 29 818
00816.M2TS 0:29:56.628 0:00:21.187 79 374 336 29 970
00805.M2TS 0:30:17.815 0:03:06.060 697 141 248 29 975
00817.M2TS 0:33:23.876 0:00:22.689 86 126 592 30 367
00806.M2TS 0:33:46.566 0:41:17.766 9 418 309 632 30 409
00818.M2TS 1:15:04.333 0:00:50.842 192 049 152 30 219
00809.M2TS 1:15:55.175 0:10:30.171 2 341 281 792 29 722
00819.M2TS 1:26:25.346 0:02:07.585 501 639 168 31 454
00810.M2TS 1:28:32.932 0:40:24.004 9 095 909 376 30 019
00820.M2TS 2:08:56.937 0:08:22.668 1 880 217 600 29 924
CHAPTERS:
Number Time In Length Avg Video Rate Max 1-Sec Rate Max 1-Sec Time Max 5-Sec Rate Max 5-Sec Time Max 10Sec Rate Max 10Sec Time Avg Frame Size Max Frame Size Max Frame Time
------ ------- ------ -------------- -------------- -------------- -------------- -------------- -------------- -------------- -------------- -------------- --------------
1 0:00:00.000 0:03:57.862 19 915 kbps 33 006 kbps 00:02:14.968 30 684 kbps 00:02:11.005 29 747 kbps 00:02:10.380 103 809 bytes 407 707 bytes 00:02:39.951
2 0:03:57.862 0:05:59.275 20 435 kbps 35 399 kbps 00:06:30.556 33 196 kbps 00:06:11.412 31 727 kbps 00:06:06.449 106 539 bytes 338 356 bytes 00:05:12.937
3 0:09:57.138 0:05:09.517 20 942 kbps 36 589 kbps 00:12:49.477 30 513 kbps 00:13:53.207 29 741 kbps 00:13:35.898 109 182 bytes 331 849 bytes 00:09:58.139
4 0:15:06.655 0:09:14.762 19 426 kbps 36 743 kbps 00:21:51.518 35 109 kbps 00:21:47.514 34 924 kbps 00:21:42.509 101 277 bytes 474 552 bytes 00:21:58.400
5 0:24:21.418 0:07:31.075 19 478 kbps 36 177 kbps 00:24:25.255 33 129 kbps 00:24:24.671 30 998 kbps 00:24:22.377 101 547 bytes 432 658 bytes 00:24:24.129
6 0:31:52.493 0:08:01.022 20 514 kbps 32 142 kbps 00:33:22.500 28 225 kbps 00:33:18.871 25 804 kbps 00:33:18.830 106 952 bytes 438 027 bytes 00:39:00.129
7 0:39:53.516 0:04:56.087 20 566 kbps 35 579 kbps 00:44:06.351 30 488 kbps 00:43:55.340 29 563 kbps 00:44:04.767 107 223 bytes 481 503 bytes 00:44:21.909
8 0:44:49.603 0:05:29.704 19 896 kbps 35 836 kbps 00:45:45.242 26 676 kbps 00:47:22.839 23 782 kbps 00:45:20.050 103 727 bytes 334 546 bytes 00:45:45.284
9 0:50:19.307 0:10:20.703 20 835 kbps 36 492 kbps 00:51:48.480 32 052 kbps 00:57:24.858 28 968 kbps 00:57:23.815 108 624 bytes 510 601 bytes 00:56:55.119
10 1:00:40.011 0:03:45.266 17 710 kbps 27 803 kbps 01:03:54.956 23 101 kbps 01:03:54.330 20 813 kbps 01:03:54.288 92 330 bytes 316 926 bytes 01:02:10.143
11 1:04:25.278 0:08:00.188 20 724 kbps 36 829 kbps 01:08:00.284 32 714 kbps 01:07:53.527 30 399 kbps 01:07:51.233 108 048 bytes 418 977 bytes 01:04:52.638
12 1:12:25.466 0:08:08.988 20 444 kbps 34 892 kbps 01:18:22.072 28 173 kbps 01:17:01.116 26 478 kbps 01:16:58.697 106 587 bytes 320 651 bytes 01:14:01.520
13 1:20:34.454 0:10:12.361 19 269 kbps 39 360 kbps 01:22:50.673 30 180 kbps 01:23:26.042 27 452 kbps 01:28:13.329 100 461 bytes 632 793 bytes 01:23:19.828
14 1:30:46.816 0:05:06.347 19 773 kbps 35 679 kbps 01:35:36.105 31 896 kbps 01:35:36.313 29 230 kbps 01:35:34.395 103 087 bytes 356 473 bytes 01:31:06.794
15 1:35:53.163 0:07:12.598 20 645 kbps 38 732 kbps 01:42:19.675 32 091 kbps 01:36:05.342 29 259 kbps 01:36:05.342 107 632 bytes 578 424 bytes 01:37:40.854
16 1:43:05.762 0:08:14.368 21 072 kbps 37 203 kbps 01:48:03.143 31 777 kbps 01:49:59.384 30 572 kbps 01:49:56.589 109 859 bytes 391 079 bytes 01:48:03.685
17 1:51:20.131 0:04:36.609 19 884 kbps 36 841 kbps 01:53:33.556 31 853 kbps 01:53:30.553 25 276 kbps 01:53:26.382 103 668 bytes 332 082 bytes 01:52:17.438
18 1:55:56.741 0:07:48.634 20 380 kbps 37 716 kbps 02:00:22.840 34 926 kbps 02:00:55.831 34 796 kbps 02:00:50.826 106 254 bytes 382 163 bytes 02:03:43.624
19 2:03:45.376 0:05:11.310 18 622 kbps 34 794 kbps 02:07:13.625 31 446 kbps 02:07:10.038 28 725 kbps 02:07:20.716 97 088 bytes 490 351 bytes 02:07:06.660
20 2:08:56.687 0:08:22.919 19 971 kbps 32 478 kbps 02:09:37.311 29 854 kbps 02:16:07.826 29 278 kbps 02:16:03.488 104 131 bytes 598 405 bytes 02:09:37.978
DISC INFO:
Disc Title: Furious 7
Disc Size: 47 541 555 117 bytes
Protection: AACS
BD-Java: Yes
BDInfo: 0.5.8
PLAYLIST REPORT:
Name: 00801.MPLS
Length: 2:19:54.844 (h:m:s.ms)
Size: 31 506 167 808 bytes
Total Bitrate: 30,02 Mbps
VIDEO:
Codec Bitrate Description
----- ------- -----------
MPEG-4 AVC Video 20099 kbps 1080p / 23,976 fps / 16:9 / High Profile 4.1
AUDIO:
Codec Language Bitrate Description
----- -------- ------- -----------
DTS-HD Master Audio English 4922 kbps 7.1 / 48 kHz / 4922 kbps / 24-bit (DTS Core: 5.1 / 48 kHz / 1509 kbps / 24-bit)
DTS Audio Czech 768 kbps 5.1 / 48 kHz / 768 kbps / 24-bit
DTS Audio Hungarian 768 kbps 5.1 / 48 kHz / 768 kbps / 24-bit
Dolby Digital Audio Polish 448 kbps 5.1 / 48 kHz / 448 kbps / DN -4dB
Dolby Digital Audio Russian 448 kbps 5.1 / 48 kHz / 448 kbps / DN -4dB
Dolby Digital Audio Turkish 448 kbps 5.1 / 48 kHz / 448 kbps / DN -4dB
SUBTITLES:
Codec Language Bitrate Description
----- -------- ------- -----------
Presentation Graphics English 31,530 kbps
Presentation Graphics Czech 19,656 kbps
Presentation Graphics Hungarian 24,649 kbps
Presentation Graphics Polish 20,947 kbps
Presentation Graphics Russian 25,695 kbps
Presentation Graphics Turkish 25,325 kbps
Presentation Graphics Bulgarian 20,399 kbps
Presentation Graphics Croatian 23,022 kbps
Presentation Graphics Estonian 21,382 kbps
Presentation Graphics Greek 27,184 kbps
Presentation Graphics Hebrew 17,457 kbps
Presentation Graphics Latvian 21,408 kbps
Presentation Graphics Lithuanian 25,951 kbps
Presentation Graphics Romanian 21,913 kbps
Presentation Graphics Slovenian 18,291 kbps
Presentation Graphics Ukrainian 25,869 kbps
Presentation Graphics Czech 0,182 kbps
Presentation Graphics Hungarian 0,966 kbps
Presentation Graphics Russian 0,942 kbps
Presentation Graphics Turkish 0,304 kbps
FILES:
Name Time In Length Size Total Bitrate
---- ------- ------ ---- -------------
00822.M2TS 0:00:00.000 0:04:58.006 1 103 204 352 29 616
00802.M2TS 0:04:58.006 0:08:51.072 1 953 011 712 29 420
00823.M2TS 0:13:49.078 0:00:57.682 216 588 288 30 039
00803.M2TS 0:14:46.760 0:14:04.969 3 122 608 128 29 564
00824.M2TS 0:28:51.729 0:01:34.219 343 277 568 29 147
00804.M2TS 0:30:25.949 0:01:21.456 303 605 760 29 818
00825.M2TS 0:31:47.405 0:00:21.813 81 739 776 29 978
00805.M2TS 0:32:09.218 0:03:06.060 697 141 248 29 975
00826.M2TS 0:35:15.279 0:00:22.689 86 071 296 30 348
00806.M2TS 0:35:37.969 0:41:17.766 9 418 309 632 30 409
00827.M2TS 1:16:55.736 0:00:59.017 222 867 456 30 210
00809.M2TS 1:17:54.753 0:10:30.171 2 341 281 792 29 722
00828.M2TS 1:28:24.924 0:02:42.328 634 429 440 31 266
00810.M2TS 1:31:07.253 0:40:24.004 9 095 909 376 30 019
00829.M2TS 2:11:31.258 0:08:23.586 1 886 121 984 29 963
CHAPTERS:
Number Time In Length Avg Video Rate Max 1-Sec Rate Max 1-Sec Time Max 5-Sec Rate Max 5-Sec Time Max 10Sec Rate Max 10Sec Time Avg Frame Size Max Frame Size Max Frame Time
------ ------- ------ -------------- -------------- -------------- -------------- -------------- -------------- -------------- -------------- -------------- --------------
1 0:00:00.000 0:04:39.946 20 063 kbps 30 426 kbps 00:03:42.138 29 158 kbps 00:03:38.509 27 431 kbps 00:03:38.301 104 581 bytes 379 192 bytes 00:04:09.332
2 0:04:39.946 0:06:49.534 20 292 kbps 35 399 kbps 00:08:02.899 33 196 kbps 00:07:43.754 31 727 kbps 00:07:38.791 105 793 bytes 338 356 bytes 00:06:45.279
3 0:11:29.480 0:05:09.809 20 941 kbps 36 556 kbps 00:14:22.111 30 513 kbps 00:15:25.841 29 741 kbps 00:15:08.532 109 177 bytes 331 849 bytes 00:11:30.481
4 0:16:39.289 0:09:14.762 19 426 kbps 36 743 kbps 00:23:24.152 35 109 kbps 00:23:20.148 34 924 kbps 00:23:15.143 101 277 bytes 474 552 bytes 00:23:31.034
5 0:25:54.052 0:07:49.844 19 498 kbps 36 177 kbps 00:25:57.889 33 129 kbps 00:25:57.305 30 998 kbps 00:25:55.011 101 656 bytes 432 658 bytes 00:25:56.763
6 0:33:43.896 0:08:00.688 20 504 kbps 32 142 kbps 00:35:13.903 28 221 kbps 00:35:10.274 25 811 kbps 00:35:10.233 106 899 bytes 438 027 bytes 00:40:51.532
7 0:41:44.585 0:04:56.421 20 582 kbps 35 579 kbps 00:45:57.754 30 488 kbps 00:45:46.743 29 563 kbps 00:45:56.169 107 308 bytes 481 503 bytes 00:46:13.312
8 0:46:41.006 0:05:29.704 19 896 kbps 35 836 kbps 00:47:36.645 26 676 kbps 00:49:14.242 23 782 kbps 00:47:11.453 103 727 bytes 334 546 bytes 00:47:36.687
9 0:52:10.710 0:10:20.703 20 835 kbps 36 492 kbps 00:53:39.883 32 052 kbps 00:59:16.260 28 968 kbps 00:59:15.218 108 624 bytes 510 601 bytes 00:58:46.522
10 1:02:31.414 0:03:45.266 17 710 kbps 27 803 kbps 01:05:46.358 23 101 kbps 01:05:45.733 20 813 kbps 01:05:45.691 92 330 bytes 316 926 bytes 01:04:01.545
11 1:06:16.680 0:08:00.188 20 724 kbps 36 829 kbps 01:09:51.687 32 714 kbps 01:09:44.930 30 399 kbps 01:09:42.636 108 048 bytes 418 977 bytes 01:06:44.041
12 1:14:16.868 0:08:17.163 20 437 kbps 34 892 kbps 01:20:21.650 28 173 kbps 01:19:00.694 26 478 kbps 01:18:58.275 106 548 bytes 320 651 bytes 01:15:52.923
13 1:22:34.032 0:10:47.104 19 312 kbps 39 360 kbps 01:24:50.251 30 180 kbps 01:25:25.620 27 528 kbps 01:30:47.650 100 682 bytes 632 793 bytes 01:25:19.405
14 1:33:21.137 0:05:06.347 19 773 kbps 35 679 kbps 01:38:10.426 31 896 kbps 01:38:10.634 29 230 kbps 01:38:08.716 103 087 bytes 356 473 bytes 01:33:41.115
15 1:38:27.484 0:07:12.598 20 645 kbps 38 732 kbps 01:44:53.995 32 091 kbps 01:38:39.663 29 259 kbps 01:38:39.663 107 632 bytes 578 424 bytes 01:40:15.175
16 1:45:40.083 0:08:14.368 21 072 kbps 37 203 kbps 01:50:37.464 31 777 kbps 01:52:33.705 30 572 kbps 01:52:30.910 109 859 bytes 391 079 bytes 01:50:38.006
17 1:53:54.452 0:04:36.609 19 884 kbps 36 841 kbps 01:56:07.877 31 853 kbps 01:56:04.874 25 276 kbps 01:56:00.703 103 668 bytes 332 082 bytes 01:54:51.759
18 1:58:31.062 0:07:48.801 20 386 kbps 37 716 kbps 02:02:57.161 34 926 kbps 02:03:30.152 34 796 kbps 02:03:25.147 106 281 bytes 382 163 bytes 02:06:17.945
19 2:06:19.863 0:05:11.311 18 622 kbps 34 794 kbps 02:09:47.946 31 446 kbps 02:09:44.359 28 725 kbps 02:09:55.037 97 088 bytes 490 351 bytes 02:09:40.981
20 2:11:31.174 0:08:23.669 19 993 kbps 32 276 kbps 02:12:11.631 29 835 kbps 02:18:42.147 29 295 kbps 02:18:37.767 104 245 bytes 598 405 bytes 02:12:12.299
Скриншоты
Скачать

Скачать торрент!

Как скачивать? · Что такое торрент? · Рейтинг и ограничения

Сайт не распространяет и не хранит электронные версии произведений, а лишь предоставляет доступ к создаваемому пользователями каталогу ссылок на торрент-файлы, которые содержат только списки хеш-сумм

[Профиль] [ЛС]
Показать сообщения:    
Ответить на тему

Текущее время: Сегодня 01:09

Часовой пояс: GMT + 4



Вы не можете начинать темы
Вы не можете отвечать на сообщения
Вы не можете редактировать свои сообщения
Вы не можете удалять свои сообщения
Вы не можете голосовать в опросах
Вы не можете прикреплять файлы к сообщениям
Вы не можете скачивать файлы