Дети свинга / Свингеры / Swing Kids (Томас Картер / Thomas Carter) [1993, США, драма, музыка, WEB-DL 720p] DVO (НТВ+) + Sub Rus, Eng + Original Eng

Ответить на тему
 
Автор Сообщение

user ®

Стаж: 7 лет 7 месяцев

Сообщений: 20008

Пост Пост: #1 от 04-Авг-2015 17:12

[Цитировать]

Дети свинга / Свингеры / Swing Kids
Страна: США
Студия: Hollywood Pictures
Жанр: драма, музыка
Год выпуска: 1993
Продолжительность: 01:53:45
Перевод: Профессиональный (двухголосый закадровый) НТВ+
Cубтитры: русские (full, forced), английские
Оригинальная аудиодорожка: английский
Режиссер: Томас Картер / Thomas Carter
В ролях: Роберт Шон Леонард, Кристиан Бэйл, Фрэнк Уэйли, Барбара Херши, Тушка Берген, Дэвид Том, Юлия Штембергер, Джейс Барток, Ноа Уайли, Йохан Лейзен, Джессика Хайнс
Описание: Молодые студенты Петер, Томас и Арвид без ума от музыки в стиле свинг. И это большая проблема, ведь герои живут в Гамбурге 1939 года, зажигательные ритмы свинга запрещены Гитлером как американская идеологическая зараза, так что их увлечение может стоить им не только свободы, но и головы.
Увы, ребята слишком молоды, чтобы оценить весь риск своей игры в бунтарей: днем — члены гитлерюгенда, вечером они самозабвенно свингуют и с презрением говорят о фюрере. Игре конец, когда гестапо хватает отца Петера за сочувствие к евреям, а сами герои попадают в поле зрения офицера СС. Для свингеров пришла пора суровых испытаний — как и для всего мира, на глазах падающего в ад глобальной войны.

Доп. информация: В русской дорожке НТВ+ есть 4 фразы без перевода, на них имеются форсированные субтитры.

Sample
Тип релиза: WEB-DL 720p
Контейнер: MKV
Видео: MPEG4 AVC Video, H264, 16:9, 1278x720, 23.976 fps, 3986 kbps
Аудио: Russian (AC3, 2 ch, 192 kbps, 16 bits, 48.0 KHz) - DVO
Аудио 2: English (AC3, 6 ch, 384 kbps, 16 bits, 48.0 KHz) - оригинал
Формат субтитров: softsub (SRT)

MediaInfo
General
Unique ID : 171953030880012341940662410219951146158 (0x815CF2F9872E4ADC9B6224B09A16C4AE)
Complete name : E:\1\Swing Kids 1993 WEB-DL 720p.mkv
Format : Matroska
Format version : Version 4 / Version 2
File size : 3.70 GiB
Duration : 1h 53mn
Overall bit rate : 4 655 Kbps
Encoded date : UTC 2015-07-31 09:48:24
Writing application : mkvmerge v6.1.0 ('Old Devil') built on Mar 2 2013 14:32:37
Writing library : libebml v1.3.0 + libmatroska v1.4.0
Video
ID : 1
Format : AVC
Format/Info : Advanced Video Codec
Format profile : High@L3.1
Format settings, CABAC : No
Format settings, ReFrames : 2 frames
Codec ID : V_MPEG4/ISO/AVC
Duration : 1h 53mn
Bit rate : 3 986 Kbps
Width : 1 278 pixels
Height : 720 pixels
Display aspect ratio : 16:9
Frame rate mode : Constant
Frame rate : 23.976 fps
Color space : YUV
Chroma subsampling : 4:2:0
Bit depth : 8 bits
Scan type : Progressive
Bits/(Pixel*Frame) : 0.181
Stream size : 3.17 GiB (86%)
Language : English
Default : Yes
Forced : No
Color primaries : BT.709
Transfer characteristics : BT.709
Matrix coefficients : BT.709
Audio #1
ID : 2
Format : AC-3
Format/Info : Audio Coding 3
Mode extension : CM (complete main)
Format settings, Endianness : Big
Codec ID : A_AC3
Duration : 1h 53mn
Bit rate mode : Constant
Bit rate : 192 Kbps
Channel count : 2 channels
Channel positions : Front: L R
Sampling rate : 48.0 KHz
Bit depth : 16 bits
Compression mode : Lossy
Stream size : 156 MiB (4%)
Language : Russian
Default : Yes
Forced : Yes
Audio #2
ID : 3
Format : AC-3
Format/Info : Audio Coding 3
Mode extension : CM (complete main)
Format settings, Endianness : Big
Codec ID : A_AC3
Duration : 1h 53mn
Bit rate mode : Constant
Bit rate : 384 Kbps
Channel count : 6 channels
Channel positions : Front: L C R, Side: L R, LFE
Sampling rate : 48.0 KHz
Bit depth : 16 bits
Compression mode : Lossy
Stream size : 312 MiB (8%)
Language : English
Default : No
Forced : No
Text #1
ID : 4
Format : UTF-8
Codec ID : S_TEXT/UTF8
Codec ID/Info : UTF-8 Plain Text
Title : Forced
Language : Russian
Default : Yes
Forced : Yes
Text #2
ID : 5
Format : UTF-8
Codec ID : S_TEXT/UTF8
Codec ID/Info : UTF-8 Plain Text
Language : Russian
Default : No
Forced : No
Text #3
ID : 6
Format : UTF-8
Codec ID : S_TEXT/UTF8
Codec ID/Info : UTF-8 Plain Text
Language : English
Default : No
Forced : No
Menu
00:00:00.000 : en:Opening Credits/Hamburg Germany, 1939
00:11:32.000 : en:An Official Visit
00:20:16.000 : en:The Record Shop
00:23:52.000 : en:The Cafe Bismarck
00:30:04.000 : en:A Serious Mistake
00:36:59.000 : en:Joining The H.J.
00:51:15.000 : en:Raids, Repercussions and Propaganda
00:58:11.000 : en:Conflicted
01:08:44.000 : en:Open Defiance and Broken Friendships
01:19:31.000 : en:Family Conflict and Unity
01:30:01.000 : en:Ashes to Ashes
01:38:26.000 : en:"It Don't Mean a Thing..."/End Credits
Скриншоты
Скачать

Скачать торрент!

Как скачивать? · Что такое торрент? · Рейтинг и ограничения

Сайт не распространяет и не хранит электронные версии произведений, а лишь предоставляет доступ к создаваемому пользователями каталогу ссылок на торрент-файлы, которые содержат только списки хеш-сумм

[Профиль] [ЛС]
Показать сообщения:    
Ответить на тему

Текущее время: Сегодня 18:13

Часовой пояс: GMT + 4



Вы не можете начинать темы
Вы не можете отвечать на сообщения
Вы не можете редактировать свои сообщения
Вы не можете удалять свои сообщения
Вы не можете голосовать в опросах
Вы не можете прикреплять файлы к сообщениям
Вы не можете скачивать файлы