200 мотелей / 200 Motels (Тони Палмер / Tony Palmer, Фрэнк Заппа / Frank Zappa) [1971, США, комедия, музыкальный, фэнтези, HDTV 1080i] DVO (НТВ+) + Original Eng

Ответить на тему
 
Автор Сообщение

user ®

Стаж: 7 лет 7 месяцев

Сообщений: 20008

Пост Пост: #1 от 04-Авг-2015 17:12

[Цитировать]

200 мотелей / 200 Motels- Страна: США
Студия: Bizarre Productions, Murakami-Wolf Productions | United Artists
Жанр: комедия, музыкальный, фэнтези
Год выпуска: 1971
Продолжительность: 01:35:30-Перевод: Профессиональный (двухголосый закадровый) НТВ+ | Ольга Плетнёва, [url=http://***/forum/profile.php?mode=viewprofile&u=4063051]Александр Воронов[/url]
Cубтитры: нет
Оригинальная аудиодорожка: английский-Режиссер:
В ролях: Фрэнк Заппа, Ринго Старр, Марк Вольман, Ховард Кэйлан, Йен Андервуд, Эйнсли Данбар, Джордж Дьюк, Теодор Бикел, Кит Мун, Джимми Карл Блэк, Джанет Фергюсон...- | Релиз: -Описание: Оригинальный, сюрреалистический, фантасмагорический фильм безумного и гениального Заппы. Фрэнк Заппа - причудливый, взрывной, авангардистский, гротесковый, непристойный, дадаистский... Он быстро ускользал из любого стиля и обретался в нем вновь, с неизменным открытием. Стили, эпохи, направления и ритмы - они появлялись то вместе, то порознь, образуя гиперболизированные и изогнутые, как в кривом зеркале, образы, создававшие карикатурную, едкую, смешную и страшную пародию нашей эпохи. Он часто расставлял «опознавательные знаки» в виде карикатур на элементы американской масс-культуры. Это фильмы ужасов 50-60 годов, радиошлягеры и «джентельменский набор» европейской и мировой культур, а также этномузыка самых разных стран. Многие вещи Фрэнка сделаны с юмором и напоминают театр абсурда. Его музыка располагалась в широком диапазоне: от психоделики до дадаистской свободной формы выражения, часто с сатирическими текстами.-Доп. информация: Фильм снят всего за $ 679,000 при участии United Artists и поставлен вместе с Фрэнком Заппой, который написал сценарий к фильму и музыку (музыка писалась в течение 4 лет на гастролях - с 1968 по 1971 г.).
Фильм стал сплавом сюрреалистического абсурдного видения Заппы, коллажей из безумного образа жизни музыкантов на гастролях, гениальной музыки композитора,- как классической, исполненной London Symphony Orchestra, так и блюз-роковой в исполнении The Mothers Of Invention 1970-71 созыва (при участии Говарда Кэйлана и Марка Волмана из группы Turtles),- и неповторимых диалогов и монологов от ударника The Beatles Ринго Старра (игравшего Гнома Ларри, одетого и загримерованного под самого Заппу), Кита Муна из The Who, Теодора Бикела и Джеффа Симмонса.
Фильм также примечателен тем, что является первым полнометражным фильмом, снятым полностью на видеоплёнку.-Семпл: http://sendfile.su/1142839-Тип релиза: HDTV 1080i
Контейнер: TS
Видео: 1920x1080i (16:9), 25.000 fps, AVC, ~7913 Kbps, 0.153 bits/pixel
Аудио 1: Русский, 48.0 KHz, MPEG-1 Audio layer 2, 2 ch, 192 kbps
Аудио 2: English, 48.0 KHz, MPEG-1 Audio layer 2, 2 ch, 192 kbps
MediaInfo
GeneralID : 1 (0x1)Complete name : 200 Motels 1971 MGMHD 1080i.rus.eng.tsFormat : MPEG-TSFile size : 5.83 GiBDuration : 1h 35mnOverall bit rate mode : VariableOverall bit rate : 8 732 KbpsMaximum Overall bit rate : 35.5 Mbps
VideoID : 4113 (0x1011)Menu ID : 1 (0x1)Format : AVCFormat/Info : Advanced Video CodecFormat profile : Main@L4Format settings, CABAC : YesFormat settings, ReFrames : 4 framesCodec ID : 27Duration : 1h 35mnBit rate : 7 913 KbpsWidth : 1 920 pixelsHeight : 1 080 pixelsDisplay aspect ratio : 16:9Frame rate : 25.000 fpsStandard : ComponentColor space : YUVChroma subsampling : 4:2:0Bit depth : 8 bitsScan type : InterlacedScan order : Top Field FirstBits/(Pixel*Frame) : 0.153Stream size : 5.28 GiB (91%)Color range : LimitedColor primaries : BT.709Transfer characteristics : BT.709Matrix coefficients : BT.709
Audio #1ID : 4352 (0x1100)Menu ID : 1 (0x1)Format : MPEG AudioFormat version : Version 1Format profile : Layer 2Codec ID : 4Duration : 1h 35mnBit rate mode : ConstantBit rate : 192 KbpsChannel(s) : 2 channelsSampling rate : 48.0 KHzCompression mode : LossyStream size : 131 MiB (2%)Language : Russian
Audio #2ID : 4353 (0x1101)Menu ID : 1 (0x1)Format : MPEG AudioFormat version : Version 1Format profile : Layer 2Codec ID : 4Duration : 1h 35mnBit rate mode : ConstantBit rate : 192 KbpsChannel(s) : 2 channelsSampling rate : 48.0 KHzCompression mode : LossyStream size : 131 MiB (2%)Language : English
Скриншоты
Скачать

Скачать торрент!

Как скачивать? · Что такое торрент? · Рейтинг и ограничения

Сайт не распространяет и не хранит электронные версии произведений, а лишь предоставляет доступ к создаваемому пользователями каталогу ссылок на торрент-файлы, которые содержат только списки хеш-сумм

[Профиль] [ЛС]
Показать сообщения:    
Ответить на тему

Текущее время: Сегодня 12:09

Часовой пояс: GMT + 4



Вы не можете начинать темы
Вы не можете отвечать на сообщения
Вы не можете редактировать свои сообщения
Вы не можете удалять свои сообщения
Вы не можете голосовать в опросах
Вы не можете прикреплять файлы к сообщениям
Вы не можете скачивать файлы